<?xml version="1.0" standalone="no"?>
<!DOCTYPE svg PUBLIC "-//W3C//DTD SVG 1.1//EN" "http://www.w3.org/Graphics/SVG/1.1/DTD/svg11.dtd" >
<svg>
<metadata>
Created by FontForge 20090914 at Wed Nov 28 09:20:27 2018
 By www-data
&#194;&#169; 1991-1993 Kivun Computers Ltd. Portions &#194;&#169; The Monotype Corporation
</metadata>
<defs>
<font id="Aharoni-Bold" horiz-adv-x="850" >
  <font-face 
    font-family="Aharoni"
    font-weight="700"
    font-stretch="normal"
    units-per-em="2048"
    panose-1="2 1 8 3 2 1 4 3 2 3"
    ascent="1505"
    descent="-543"
    x-height="928"
    cap-height="1365"
    bbox="-161.998 -518 2643 1505"
    underline-thickness="150"
    underline-position="-142"
    unicode-range="U+0020-U+FB4F"
  />
<missing-glyph horiz-adv-x="1024" 
d="M128 0v1505h768v-1505h-768zM256 128h512v1249h-512v-1249z" />
    <glyph glyph-name=".notdef" horiz-adv-x="1024" 
d="M128 0v1505h768v-1505h-768zM256 128h512v1249h-512v-1249z" />
    <glyph glyph-name="space" unicode=" " horiz-adv-x="567" 
 />
    <glyph glyph-name="exclam" unicode="!" horiz-adv-x="510" 
d="M344 285h-215v686h215v-686zM362 119c0 -32.667 -11.833 -61 -35.5 -85s-52.5 -36 -86.5 -36c-33.333 0 -61.833 12 -85.5 36s-35.5 52.333 -35.5 85c0 34.667 11.667 64.5 35 89.5s52 37.5 86 37.5s62.833 -12.5 86.5 -37.5s35.5 -54.833 35.5 -89.5z" />
    <glyph glyph-name="quotedbl" unicode="&#x22;" horiz-adv-x="793" 
d="M721 1067l-158 -371h-153l104 371h207zM387 1067l-162 -371h-149l100 371h211z" />
    <glyph glyph-name="numbersign" unicode="#" 
d="M834 676h-185l-28 -213h172v-105h-185l-53 -358h-104l51 358h-226l-51 -358h-106l53 358h-172v105h199l26 213h-184v104h197l53 330h106l-53 -330h211l53 330h105l-51 -330h172v-104zM543 676h-211l-29 -213h213z" />
    <glyph glyph-name="dollar" unicode="$" 
d="M764 309c0 -98 -29.001 -177.001 -87.001 -237.001c-53.333 -54.667 -120 -84 -200 -88v-101h-96v101c-86 0 -155 23.667 -207 71c-56 52 -84 125 -84 219h207c0 -58 28 -95.333 84 -112v237c-181.333 38.667 -272 134.334 -272 287.001c0 73.333 26.333 136.5 79 189.5
s117 82.167 193 87.5v94h96v-94c74.667 -3.33301 136.334 -28 185.001 -74s73 -105.333 73 -178h-200c-4 34 -23.333 60.667 -58 80v-213c76.667 -16 141.667 -46.667 195 -92c61.333 -50.667 92 -109.667 92 -177zM380.999 603.999v182
c-46.667 -19.333 -70 -53.333 -70 -102c0 -47.333 23.333 -74 70 -80zM552.999 275.999c0 56.667 -25.333 91.667 -76 105v-221c50.667 22 76 60.667 76 116z" />
    <glyph glyph-name="percent" unicode="%" horiz-adv-x="1303" 
d="M1208 270c0 -82 -20.8311 -149.5 -62.498 -202.5s-97.834 -79.5 -168.501 -79.5s-127 26.5 -169 79.5s-63 120.5 -63 202.5c0 76 20.667 139.667 62 191c44 54.667 100.667 82 170 82s125.666 -27.333 168.999 -82c41.333 -51.333 62 -115 62 -191zM969.002 938
l-520 -938h-111l522 938h109zM565.002 680c0 -82.667 -20.665 -150 -61.998 -202c-42.667 -54 -99 -81 -169 -81c-70.667 0 -127.334 27 -170.001 81c-41.333 52 -62 119.333 -62 202c0 75.333 20.667 139 62 191c44 54 100.667 81 170 81s125.666 -27 168.999 -81
c41.333 -52 62 -115.667 62 -191zM1065 268c0 42 -8 77.167 -24 105.5s-37.333 42.5 -64 42.5s-48 -14.167 -64 -42.5s-24 -63.5 -24 -105.5c0 -44 7.83301 -80.5 23.5 -109.5s37.167 -43.5 64.5 -43.5c26.667 0 48 14.5 64 43.5s24 65.5 24 109.5zM422.004 678
c0 41.333 -8.00098 76.166 -24.001 104.499s-37.333 42.5 -64 42.5s-48 -14.167 -64 -42.5s-24 -63.166 -24 -104.499c0 -44.667 7.66699 -81 23 -109c16 -30 37.667 -45 65 -45c26.667 0 48.334 15 65.001 45c15.333 28 23 64.333 23 109z" />
    <glyph glyph-name="ampersand" unicode="&#x26;" horiz-adv-x="1311" 
d="M1220 221l-123.001 -254c-73.333 43.333 -134 87.333 -182 132c-99.333 -89.333 -221.666 -134 -366.999 -134c-122 0 -223 29.667 -303 89c-89.333 65.333 -134 157 -134 275c0 140 88.667 257.333 266 352c-53.333 63.333 -85.333 104.333 -96 123
c-25.333 42.667 -38 92.334 -38 149.001c0 83.333 37.667 153 113 209c72 53.333 157.333 80 256 80c105.333 0 192.666 -25 261.999 -75c74 -53.333 111 -124 111 -212c0 -113.333 -80.333 -215 -241 -305l156 -156c24 46 39.667 88 47 126l238 -77
c-21.333 -86 -54.666 -162.667 -99.999 -230c33.333 -28.667 78.333 -59.334 135 -92.001zM725.999 938c0 30.667 -10.834 55.8311 -32.501 75.498s-46.5 29.5 -74.5 29.5c-25.333 0 -47.666 -6.66699 -66.999 -20c-24 -16.667 -36 -40 -36 -70
c0 -35.333 11.667 -65.666 35 -90.999l59 -65l65 43c34 22.667 51 55.334 51 98.001zM743.998 288.997l-237.001 235.001c-70.667 -40.667 -106 -101.334 -106 -182.001c0 -33.333 15.167 -64.333 45.5 -93s60.833 -43 91.5 -43c80.667 0 149.334 27.667 206.001 83z" />
    <glyph glyph-name="quotesingle" unicode="'" horiz-adv-x="453" 
d="M369 1063l-160 -363h-148l101 363h207z" />
    <glyph glyph-name="parenleft" unicode="(" horiz-adv-x="625" 
d="M504 -182c-6 0 -14.167 -0.333008 -24.5 -1s-17.833 -1 -22.5 -1c-130.667 0 -225 39 -283 117c-40.667 55.333 -61 125.333 -61 210v656c0 85.333 20.333 155.333 61 210c58 78 152.333 117 283 117c4.66699 0 12.167 -0.333008 22.5 -1s18.5 -1 24.5 -1v-176
c-68 0 -116.5 -11.333 -145.5 -34s-43.5 -61 -43.5 -115v-656c0 -54 14.5 -92.333 43.5 -115s77.5 -34 145.5 -34v-176z" />
    <glyph glyph-name="parenright" unicode=")" horiz-adv-x="625" 
d="M512 143c0 -84.667 -20.333 -154.667 -61 -210c-58 -78 -152.333 -117 -283 -117c-4.66699 0 -12.334 0.333008 -23.001 1s-18.667 1 -24 1v176c68 0 116.333 11.333 145 34s43 61 43 115v656c0 54 -14.333 92.333 -43 115s-77 34 -145 34v176
c5.33301 0 13.333 0.333008 24 1s18.334 1 23.001 1c130.667 0 225 -39 283 -117c40.667 -54.667 61 -124.667 61 -210v-656z" />
    <glyph glyph-name="asterisk" unicode="*" horiz-adv-x="625" 
d="M563 795c-4.66699 -37.333 -25.665 -78.333 -62.998 -123l-127 80l18 -148c-20 -5.33301 -44 -8 -72 -8c-17.333 0 -39.666 2.66699 -66.999 8l10 150l-119 -86c-29.333 22 -50.333 63 -63 123l129 49l-133 57c9.33301 42.667 31.666 81.667 66.999 117l119 -72l-18 139
c19.333 8.66699 43.666 13 72.999 13c16.667 0 40 -3 70 -9l-10 -143l110 78c43.333 -24.667 66.666 -63.667 69.999 -117l-127 -55z" />
    <glyph glyph-name="plus" unicode="+" horiz-adv-x="1249" 
d="M1120 385h-415v-434h-123v434h-416v123h416v434h123v-434h415v-123z" />
    <glyph glyph-name="comma" unicode="," horiz-adv-x="453" 
d="M373 195l-135 -324h-162l86 324h211z" />
    <glyph glyph-name="hyphenminus" unicode="-" horiz-adv-x="625" 
d="M528 360h-438v213h438v-213z" />
    <glyph glyph-name="period" unicode="." horiz-adv-x="453" 
d="M358 104c0 -33.333 -11.667 -61.666 -35 -84.999s-51.666 -35 -84.999 -35c-34.667 0 -63.834 11.667 -87.501 35s-35.5 51.666 -35.5 84.999s11.833 61.5 35.5 84.5s52.834 34.5 87.501 34.5c33.333 0 61.666 -11.5 84.999 -34.5s35 -51.167 35 -84.5z" />
    <glyph glyph-name="slash" unicode="/" horiz-adv-x="682" 
d="M621 942l-420 -944h-125l426 944h119z" />
    <glyph glyph-name="zero" unicode="0" 
d="M768 481c0 -147.333 -29.333 -266.333 -88 -357c-62 -96 -146.667 -144 -254 -144s-192 48 -254 144c-58.667 90.667 -88 209.667 -88 357c0 134 29.333 245.667 88 335c63.333 96.667 148 145 254 145s190.667 -48.333 254 -145c58.667 -89.333 88 -201 88 -335z
M547 479c0 76 -10.333 139 -31 189c-22.667 53.333 -52.667 80 -90 80s-67.333 -26.667 -90 -80c-20.667 -50 -31 -113 -31 -189c0 -188 40.333 -282 121 -282s121 94 121 282z" />
    <glyph glyph-name="one" unicode="1" 
d="M602 0h-207v575l-76 -46c-30.667 -17.333 -57.667 -28.333 -81 -33v215c92.667 54.667 158 129 196 223h168v-934z" />
    <glyph glyph-name="two" unicode="2" 
d="M782 217l-96 -217.001h-598v12l326 426c46 60.667 69 117.334 69 170.001c0 50.667 -19.333 90 -58 118c-35.333 26.667 -82 40 -140 40c-37.333 0 -81.666 -9.66699 -132.999 -29v201c62 15.333 125.333 23 190 23c109.333 0 198.166 -28.333 266.499 -85
s102.5 -129.667 102.5 -219c0 -81.333 -26.667 -161 -80 -239l-137 -201h288z" />
    <glyph glyph-name="three" unicode="3" 
d="M762 295c0 -93.333 -37.665 -169.669 -112.998 -229.002c-72.667 -57.333 -162.667 -86 -270 -86c-94.667 0 -179.334 19.667 -254.001 59l61 190c90.667 -30 157.667 -45 201 -45c42 0 77 9.33301 105 28c31.333 20 47 47 47 81c0 38.667 -17.667 69.334 -53 92.001
c-30.667 20.667 -68.334 31 -113.001 31c-26 0 -45.333 -1.33301 -58 -4v147c122 0 183 37 183 111c0 29.333 -15.333 53 -46 71c-26.667 16 -58.667 24.333 -96 25c-55.333 0.666992 -108.333 -14.333 -159 -45v201c62.667 26 130.667 39 204 39
c82.667 0 153 -19.333 211 -58c71.333 -46 107 -112 107 -198c0 -85.333 -34.333 -145.666 -103 -180.999c44 -19.333 79.333 -50 106 -92s40 -87.667 40 -137z" />
    <glyph glyph-name="four" unicode="4" 
d="M788 315l-73 -178h-33v-137h-201v137h-387v162l387 635h201v-619h106zM481 315v285l-184 -285h184z" />
    <glyph glyph-name="five" unicode="5" 
d="M743 934l-42.9971 -166h-251l-37 -129c97.333 0 174.166 -26 230.499 -78s84.5 -125 84.5 -219c0 -116 -42 -207.333 -126 -274c-74 -58.667 -165 -88 -273 -88c-48.667 0 -107.334 10 -176.001 30v203c47.333 -20.667 97 -31 149 -31c135.333 0 203 50 203 150
c0 88.667 -73.667 138.334 -221 149.001c-16.667 1.33301 -37.334 0.666016 -62.001 -2.00098c-29.333 -2.66699 -49 -4 -59 -4l119 459h462z" />
    <glyph glyph-name="six" unicode="6" 
d="M768 336c0 -110 -33.667 -198.001 -101 -264.001c-64 -61.333 -145 -92 -243 -92c-96 0 -175.667 31.333 -239 94c-66 65.333 -99 152 -99 260c0 60.667 13.667 119 41 175c24 48.667 66.333 110.334 127 185.001l195 240h260l-240 -295
c83.333 -10.667 151.333 -38.667 204 -84c63.333 -54.667 95 -127.667 95 -219zM549 318.999c0 33.333 -12 61.833 -36 85.5s-52.333 35.5 -85 35.5s-61 -11.833 -85 -35.5s-36 -52.167 -36 -85.5c0 -32.667 12 -60.834 36 -84.501s52.333 -35.5 85 -35.5s61 11.833 85 35.5
s36 51.834 36 84.501z" />
    <glyph glyph-name="seven" unicode="7" 
d="M782 934l-387 -934h-229l311 758h-334l76 176h563z" />
    <glyph glyph-name="eight" unicode="8" 
d="M752 295c0 -92 -32.3311 -167.499 -96.998 -226.499s-144.334 -88.5 -239.001 -88.5s-174.334 29.667 -239.001 89s-97 134.666 -97 225.999c0 86.667 34.667 159 104 217c-50 41.333 -75 95.333 -75 162c0 83.333 29.5 152 88.5 206s131.833 81 218.5 81
c86 0 158.667 -27 218 -81s89 -122.667 89 -206c0 -74 -25.333 -128 -76 -162c70 -56 105 -128.333 105 -217zM514.002 668.001c0 26.667 -9.66699 49.667 -29 69s-42.333 29 -69 29s-49.834 -9.66699 -69.501 -29s-29.5 -42.333 -29.5 -69s9.83301 -49.834 29.5 -69.501
s42.834 -29.5 69.501 -29.5s49.667 9.83301 69 29.5s29 42.834 29 69.501zM535.002 293.001c0 31.333 -12 59 -36 83s-51.667 36 -83 36c-32 0 -59.833 -12 -83.5 -36s-35.5 -51.667 -35.5 -83c0 -32 11.833 -59.833 35.5 -83.5s51.5 -35.5 83.5 -35.5
c31.333 0 59 11.833 83 35.5s36 51.5 36 83.5z" />
    <glyph glyph-name="nine" unicode="9" 
d="M764 596c0 -60.667 -13.667 -118.999 -41 -174.999c-24 -48.667 -66.333 -110.334 -127 -185.001l-195 -240h-260l240 295c-83.333 10.667 -151.333 38.667 -204 84c-63.333 54 -95 127 -95 219c0 110 33.667 197.667 101 263c64 62 145 93 243 93
c96 0 175.667 -31.333 239 -94c66 -66 99 -152.667 99 -260zM543 610.001c0 32.667 -12 61 -36 85s-52.333 36 -85 36s-61 -12 -85 -36s-36 -52.333 -36 -85s12 -61 36 -85s52.333 -36 85 -36s61 12 85 36s36 52.333 36 85z" />
    <glyph glyph-name="colon" unicode=":" horiz-adv-x="567" 
d="M334 614c0 -33.333 -12 -61.666 -36 -84.999s-53 -35 -87 -35s-63 11.667 -87 35s-36 51.666 -36 84.999c0 34 12 63 36 87s53 36 87 36s63 -12 87 -36s36 -53 36 -87zM334 100c0 -33.333 -12 -61.666 -36 -84.999s-53 -35 -87 -35s-63 11.667 -87 35
s-36 51.666 -36 84.999c0 34 12 63 36 87s53 36 87 36s63 -12 87 -36s36 -53 36 -87z" />
    <glyph glyph-name="semicolon" unicode=";" horiz-adv-x="567" 
d="M358 614c0 -33.333 -12 -61.666 -36 -84.999s-52.667 -35 -86 -35c-34 0 -63 11.667 -87 35s-36 51.666 -36 84.999c0 34 12 63 36 87s53 36 87 36c33.333 0 62 -12 86 -36s36 -53 36 -87zM358 195l-135 -330h-155l86 330h204z" />
    <glyph glyph-name="less" unicode="&#x3c;" horiz-adv-x="1229" 
d="M1057 -41l-885 422v160l885 422v-164l-723 -342l723 -334v-164z" />
    <glyph glyph-name="equal" unicode="=" horiz-adv-x="1249" 
d="M1120 518h-954v123h954v-123zM1120 252h-954v123h954v-123z" />
    <glyph glyph-name="greater" unicode="&#x3e;" horiz-adv-x="1229" 
d="M1057 381l-885 -422v164l723 334l-723 342v164l885 -422v-160z" />
    <glyph glyph-name="question" unicode="?" horiz-adv-x="965" 
d="M784 623c0 -104.667 -30.999 -186.001 -92.999 -244.001c-46.667 -44 -94 -66 -142 -66v-53h-201v244c36 -15.333 64 -23 84 -23c39.333 0 72.333 13.667 99 41s40 60.333 40 99s-14 71.834 -42 99.501s-60.333 41.5 -97 41.5c-32.667 0 -63.334 -12.667 -92.001 -38
s-45 -54.333 -49 -87l-207 27c17.333 84.667 55.333 154 114 208c64 59.333 142 89 234 89c104 0 188.667 -31.833 254 -95.5s98 -144.5 98 -242.5zM567.001 95.999c0 -32.667 -11.5 -60.167 -34.5 -82.5s-50.833 -33.5 -83.5 -33.5c-33.333 0 -61.5 11.167 -84.5 33.5
s-34.5 49.833 -34.5 82.5s11.5 60.667 34.5 84s51.167 35 84.5 35c32.667 0 60.5 -11.667 83.5 -35s34.5 -51.333 34.5 -84z" />
    <glyph glyph-name="at" unicode="@" horiz-adv-x="1409" 
d="M1427 776c0 -78.667 -15.6709 -155.004 -47.0039 -229.004c-33.333 -79.333 -79 -141.666 -137 -186.999c-66.667 -52 -137 -78 -211 -78c-42 0 -79 11.667 -111 35c-13.333 10 -28.333 27.667 -45 53c-61.333 -60.667 -133.333 -91 -216 -91c-86 0 -159.667 30 -221 90
c-72.667 71.333 -109 166 -109 284c0 132.667 46.333 236.334 139 311.001c65.333 52.667 142.666 79 231.999 79c58.667 0 120.334 -19.667 185.001 -59l12 43h189l-55 -451c-3.33301 -27.333 -5 -57.666 -5 -90.999c0 -26 7.66699 -39 23 -39c12 0 25.333 3 40 9
c52 21.333 93.667 64.333 125 129c27.333 56.667 41 116 41 178c0 123.333 -39.333 228 -118 314c-101.333 110.667 -238.333 166 -411 166c-138.667 0 -260 -44.333 -364 -133c-129.333 -110 -194 -253.333 -194 -430c0 -191.333 74.333 -341 223 -449
c94.667 -68.667 213.667 -103 357 -103c118.667 0 225.667 21 321 63l66 29l30 15c2.66699 1.33301 7.33398 3.33301 14.001 6l65 -165l-11 -5c-4 -2 -9 -4.66699 -15 -8l-10 -5l-48 -22c-123.333 -56.667 -259.666 -85 -408.999 -85c-188 0 -346 46 -474 138
c-93.333 67.333 -166.166 153.333 -218.499 258s-78.5 215.334 -78.5 332.001c0 191.333 62.667 354.333 188 489c148 159.333 335.333 239 562 239c218.667 0 396.334 -73 533.001 -219c108.667 -116 163 -253 163 -411zM865.996 694.996c0 47.333 -16 85.333 -48 114
s-72 43 -120 43c-39.333 0 -74.666 -14.667 -105.999 -44c-40.667 -38.667 -61 -93.667 -61 -165c0 -46 11 -85 33 -117c25.333 -37.333 59.666 -56 102.999 -56c56 0 103.667 24 143 72c37.333 44.667 56 95.667 56 153z" />
    <glyph glyph-name="A" unicode="A" horiz-adv-x="1454" 
d="M1440 0h-379l-88 238h-490l-94 -238h-375l525 1365h387zM877 508l-147 435l-149 -435h296z" />
    <glyph glyph-name="B" unicode="B" horiz-adv-x="1266" 
d="M1183 388c0 -102 -29 -184.998 -87 -248.998c-84 -92.667 -212 -139 -384 -139h-569v1365h528c256 0 384 -118.667 384 -356c0 -71.333 -14 -131 -42 -179c-23.333 -40.667 -59.333 -75.334 -108 -104.001c109.333 -22.667 184 -66.334 224 -131.001
c36 -59.333 54 -128.333 54 -207zM727 962.002c0 62 -28 103 -84 123c-20 6.66699 -46.667 10 -80 10h-65v-267h65c61.333 0 105.333 15 132 45c21.333 24 32 53.667 32 89zM828 412.002c0 79.333 -41 126 -123 140c-26 4 -70.667 6 -134 6h-73v-288h79
c90.667 0 154 10.667 190 32c40.667 24 61 60.667 61 110z" />
    <glyph glyph-name="C" unicode="C" horiz-adv-x="1208" 
d="M1126 32c-116 -46 -223.333 -69.002 -322 -69.002c-172 0 -326 55 -462 165c-173.333 140.667 -260 324 -260 550c0 226.667 86.667 410.334 260 551.001c136 110 291 165 465 165c94.667 0 201 -23 319 -69v-425c-33.333 40.667 -67.333 71.334 -102 92.001
c-63.333 38 -131.333 57 -204 57c-92 0 -172 -27.667 -240 -83c-86 -70 -129 -166 -129 -288c0 -121.333 43 -217 129 -287c68 -55.333 148 -83 240 -83c72.667 0 140.667 19 204 57c34 20 68 50.667 102 92v-425z" />
    <glyph glyph-name="D" unicode="D" horiz-adv-x="1423" 
d="M1340 683c0 -142 -42.832 -273.5 -128.499 -394.5s-195.167 -204.833 -328.5 -251.5c-70.667 -24.667 -142.667 -37 -216 -37h-524v1365h524c128 0 246.667 -35.667 356 -107c107.333 -69.333 189.666 -162 246.999 -278c46.667 -96 70 -195 70 -297zM971.001 683
c0 94 -26.332 176 -78.999 246c-70 92.667 -174.333 139 -313 139h-81v-771h81c139.333 0 243.666 46.333 312.999 139c52.667 70.667 79 153 79 247z" />
    <glyph glyph-name="E" unicode="E" horiz-adv-x="1002" 
d="M920 0h-777v1365h777v-297h-422v-231h399v-297h-399v-243h422v-297z" />
    <glyph glyph-name="F" unicode="F" horiz-adv-x="994" 
d="M925 1068h-427v-231h389v-297h-389v-540h-355v1365h782v-297z" />
    <glyph glyph-name="G" unicode="G" horiz-adv-x="1593" 
d="M1511 758c0 -148 -16.667 -268.664 -50 -361.997c-50.667 -142 -134.334 -251.333 -251.001 -328c-112.667 -73.333 -246 -110 -400 -110c-250.667 0 -443 85.333 -577 256c-101.333 129.333 -152 283.666 -152 462.999c0 198.667 59.333 365.667 178 501
c134.667 154 322.667 231 564 231c161.333 0 298 -41.333 410 -124c80 -58.667 148.333 -145.334 205 -260.001l-337 -139c-28.667 64 -62 112 -100 144c-54.667 45.333 -119.667 68 -195 68c-154 0 -261.333 -79.667 -322 -239c-22.667 -58.667 -34 -119.334 -34 -182.001
c0 -130 41 -238.333 123 -325c60.667 -64.667 141.667 -97 243 -97c90 0 161.333 26.333 214 79c34.667 34.667 57.334 86 68.001 154h-291v270h704z" />
    <glyph glyph-name="H" unicode="H" horiz-adv-x="1509" 
d="M1365 0h-355v568h-512v-568h-355v1365h355v-527h512v527h355v-1365z" />
    <glyph glyph-name="I" unicode="I" horiz-adv-x="642" 
d="M498 0h-355v1365h355v-1365z" />
    <glyph glyph-name="J" unicode="J" horiz-adv-x="959" 
d="M816 421c0 -55.333 -3.33301 -100.667 -10 -136c-14 -75.333 -54.333 -143.333 -121 -204c-86 -78.667 -191 -118 -315 -118c-146.667 0 -265.334 67.333 -356.001 202l232 237c10.667 -88.667 49.334 -133 116.001 -133c68 0 101.333 52.667 100 158l-1 75v863h355v-944
z" />
    <glyph glyph-name="K" unicode="K" horiz-adv-x="1433" 
d="M1419 0h-460l-461 592v-592h-355v1365h355v-563l433 563h438l-542 -646z" />
    <glyph glyph-name="L" unicode="L" horiz-adv-x="963" 
d="M924 0h-781v1365h355v-1068h426v-297z" />
    <glyph glyph-name="M" unicode="M" horiz-adv-x="1875" 
d="M1793 0h-355l-101 786l-330 -786h-141l-315 786l-116 -786h-353l232 1365h350l277 -728l293 728h353z" />
    <glyph glyph-name="N" unicode="N" horiz-adv-x="1649" 
d="M1506 0h-355l-653 836v-836h-355v1365h355l653 -835v835h355v-1365z" />
    <glyph glyph-name="O" unicode="O" horiz-adv-x="1675" 
d="M1593 678c0 -185.333 -61.667 -348 -185 -488c-140.667 -159.333 -331 -239 -571 -239c-239.333 0 -429.333 79.667 -570 239c-123.333 140 -185 302.667 -185 488c0 84.667 16.667 171.5 50 260.5s78 165.167 134 228.5c140.667 159.333 331 239 571 239
s430.333 -79.667 571 -239c123.333 -140 185 -303 185 -489zM1224 678c0 96 -30.667 179 -92 249c-78.667 89.333 -177 134 -295 134c-81.333 0 -155 -22.833 -221 -68.5s-113 -106.5 -141 -182.5c-16 -43.333 -24 -87.333 -24 -132c0 -92 30.667 -174.333 92 -247
c76 -90 174 -135 294 -135s218.333 44.667 295 134c61.333 71.333 92 154 92 248z" />
    <glyph glyph-name="P" unicode="P" horiz-adv-x="1227" 
d="M1182 915c0 -123.333 -29 -225.333 -87 -306c-75.333 -104.667 -200.333 -157 -375 -157h-222v-452h-355v1365h565c160.667 0 282.667 -47 366 -141c72 -80.667 108 -183.667 108 -309zM813 911c0 50.667 -14.834 91.167 -44.501 121.5s-80.167 45.5 -151.5 45.5h-119
v-339h118c76.667 0 129.334 16.667 158.001 50c26 30 39 70.667 39 122z" />
    <glyph glyph-name="Q" unicode="Q" horiz-adv-x="1675" 
d="M1646 -39l-326 -49.999l-108 127c-117.333 -58 -242 -87 -374 -87c-239.333 0 -429.666 79.667 -570.999 239c-123.333 139.333 -185 302 -185 488c0 186.667 61.667 349.667 185 489c141.333 159.333 331.666 239 570.999 239c240 0 430.333 -79.667 571 -239
c123.333 -140 185 -303 185 -489c0 -178.667 -60 -339.334 -180 -482.001zM1225 678.001c0 94 -31 177.001 -93 249.001c-76.667 89.333 -174.667 134 -294 134s-217.333 -45 -294 -135c-62 -72.667 -93 -155.334 -93 -248.001c0 -92 30.667 -174.333 92 -247
c76 -90 174 -135 294 -135c34 0 71 5 111 15l-219 220l334 41l97 -103c43.333 66 65 135.667 65 209z" />
    <glyph glyph-name="R" unicode="R" horiz-adv-x="1284" 
d="M1278 0h-441.999l-338 524v-524h-355v1365h552c161.333 0 280.666 -48.333 357.999 -145c62.667 -78 94 -169.667 94 -275c0 -120.667 -36 -217 -108 -289c-46 -46 -109.333 -78 -190 -96zM778.001 925c0 48.667 -17.668 89.667 -53.001 123
c-33.333 31.333 -87 47 -161 47h-66v-341h66c74.667 0 128.334 15.667 161.001 47c35.333 34 53 75.333 53 124z" />
    <glyph glyph-name="S" unicode="S" horiz-adv-x="1170" 
d="M1089 452c0 -230.667 -101.33 -381 -303.997 -451c-70.667 -24.667 -146.667 -37 -228 -37c-170.667 0 -329 51.667 -475 155l152 286c106.667 -96 211 -144 313 -144c46 0 85 10.667 117 32c37.333 24 56 58 56 102c0 40 -20.667 73.333 -62 100
c-30.667 20 -82.334 40.333 -155.001 61c-88 26 -143.333 44 -166 54c-36 15.333 -66.667 33.333 -92 54c-72.667 60 -109 150.667 -109 272c0 126.667 37.667 231.667 113 315c88 98 205.333 147 352 147c147.333 0 291.666 -37 432.999 -111l-142 -276
c-77.333 60 -155.333 90 -234 90c-38 0 -72 -9.66699 -102 -29c-34 -22 -51 -51.333 -51 -88c0 -36 22.333 -67 67 -93c20 -12 80 -32.667 180 -62c125.333 -36.667 214.666 -88.667 267.999 -156c46 -57.333 69 -131 69 -221z" />
    <glyph glyph-name="T" unicode="T" horiz-adv-x="965" 
d="M952 1068h-294v-1068h-355v1068h-289v297h938v-297z" />
    <glyph glyph-name="U" unicode="U" horiz-adv-x="1477" 
d="M1334 578c0 -82 -6.66699 -152 -20 -210c-20.667 -90 -70 -172 -148 -246c-110.667 -104.667 -258.667 -157 -444 -157c-188.667 0 -336 53.333 -442 160c-56 56 -94.333 126.333 -115 211c-14.667 60 -22 140.667 -22 242v787h355v-739c0 -59.333 1 -103.666 3 -132.999
c6.66699 -92.667 49 -157.334 127 -194.001c32 -15.333 67.333 -23 106 -23c86.667 0 152 30.333 196 91c32.667 44.667 49 131 49 259v739h355v-787z" />
    <glyph glyph-name="V" unicode="V" horiz-adv-x="1432" 
d="M1432 1365l-582 -1365h-276l-574 1365h386l329 -830l332 830h385z" />
    <glyph glyph-name="W" unicode="W" horiz-adv-x="2076" 
d="M2076 1365l-436 -1365h-362l-249 791l-261 -791h-361l-407 1365h371l237 -882l289 882h282l269 -882l258 882h370z" />
    <glyph glyph-name="X" unicode="X" horiz-adv-x="1455" 
d="M1455 0h-428l-292 444l-306 -444h-429l534 728l-437 637h437l203 -354l212 354h436l-445 -637z" />
    <glyph glyph-name="Y" unicode="Y" horiz-adv-x="1311" 
d="M1335 1365l-511 -709v-656h-355v656l-494 709h424l258 -372l248 372h430z" />
    <glyph glyph-name="Z" unicode="Z" horiz-adv-x="1293" 
d="M1265 1365l-643 -1068h573v-297h-1168l646 1068h-537v297h1129z" />
    <glyph glyph-name="bracketleft" unicode="[" horiz-adv-x="625" 
d="M453 -205h-338v1307h338v-176h-152v-944h152v-187z" />
    <glyph glyph-name="backslash" unicode="\" horiz-adv-x="565" 
d="M541 0h-146l-395 1194h160z" />
    <glyph glyph-name="bracketright" unicode="]" horiz-adv-x="625" 
d="M502 -205h-338v187h151v944h-151v176h338v-1307z" />
    <glyph glyph-name="asciicircum" unicode="^" horiz-adv-x="788" 
d="M768 436h-119l-252 568l-252 -568h-118l317 701h107z" />
    <glyph glyph-name="underscore" unicode="_" horiz-adv-x="1032" 
d="M1053 -258h-1053v113h1053v-113z" />
    <glyph glyph-name="grave" unicode="`" horiz-adv-x="1024" 
d="M664 1177l-152 -112l-315 279l208 149z" />
    <glyph glyph-name="a" unicode="a" horiz-adv-x="1270" 
d="M1158 0l-327.998 -0.000976562v103c-31.333 -39.333 -63 -68 -95 -86c-56 -31.333 -119.667 -47 -191 -47c-115.333 0 -218 39.667 -308 119c-107.333 94.667 -161 220 -161 376c0 158.667 55 285.334 165 380.001c87.333 75.333 187.666 113 300.999 113
c66 0 128 -14 186 -42c33.333 -16 67.666 -42.333 102.999 -79v91h328v-928zM840.002 463.999c0 58.667 -20.667 108.5 -62 149.5s-91.333 61.5 -150 61.5c-65.333 0 -119 -24.667 -161 -74c-34 -40 -51 -85.667 -51 -137s17 -97 51 -137c41.333 -49.333 95 -74 161 -74
c59.333 0 109.5 20.333 150.5 61s61.5 90.667 61.5 150z" />
    <glyph glyph-name="b" unicode="b" horiz-adv-x="1270" 
d="M1195 465c0 -156 -53.665 -281.333 -160.998 -376c-90 -79.333 -192.667 -119 -308 -119c-71.333 0 -135 15.667 -191 47c-34 18.667 -65.667 47.334 -95 86.001v-103h-328v1502h328v-665c35.333 36.667 69.666 63 102.999 79c58 28 120 42 186 42
c113.333 0 213.666 -37.667 300.999 -113c110 -94.667 165 -221.334 165 -380.001zM854.002 464c0 51.333 -17 96.999 -51 136.999c-42 49.333 -95.667 74 -161 74c-58.667 0 -108.667 -20.5 -150 -61.5s-62 -90.833 -62 -149.5s20.667 -108.5 62 -149.5
s91.333 -61.5 150 -61.5c66 0 119.667 24.667 161 74c34 40.667 51 86.334 51 137.001z" />
    <glyph glyph-name="c" unicode="c" horiz-adv-x="887" 
d="M812 20c-68 -34 -139.334 -51 -214.001 -51c-169.333 0 -303.666 57.333 -402.999 172c-80 92.667 -120 200 -120 322c0 122.667 40 230 120 322c99.333 114.667 233.666 172 402.999 172c76 0 147.333 -17.333 214 -52v-279c-58 40.667 -114.667 61 -170 61
c-65.333 0 -119.333 -21 -162 -63s-64 -95.667 -64 -161s21.333 -119 64 -161s96.667 -63 162 -63c54.667 0 111.334 20 170.001 60v-279z" />
    <glyph glyph-name="d" unicode="d" horiz-adv-x="1270" 
d="M1158 0l-327.998 -0.000976562v103c-31.333 -39.333 -63 -68 -95 -86c-56 -31.333 -119.667 -47 -191 -47c-115.333 0 -218 39.667 -308 119c-107.333 94.667 -161 220 -161 376c0 158.667 55 285.334 165 380.001c87.333 75.333 187.666 113 300.999 113
c66 0 128 -14 186 -42c33.333 -16 67.666 -42.333 102.999 -79v665h328v-1502zM840.002 463.999c0 58.667 -20.667 108.5 -62 149.5s-91.333 61.5 -150 61.5c-65.333 0 -119 -24.667 -161 -74c-34 -40 -51 -85.667 -51 -137s17 -97 51 -137c41.333 -49.333 95 -74 161 -74
c59.333 0 109.5 20.333 150.5 61s61.5 90.667 61.5 150z" />
    <glyph glyph-name="e" unicode="e" horiz-adv-x="1172" 
d="M1097 404l-690.002 -0.000976562c0 -139.333 67.333 -209 202 -209c68.667 0 121.334 29.333 158.001 88h317c-25.333 -84 -62.666 -149 -111.999 -195c-89.333 -83.333 -209 -125 -359 -125c-190.667 0 -334 58 -430 174c-72 86.667 -108 192.334 -108 317.001
c0 148 45 268.333 135 361s217 139 381 139c202 0 346.333 -73.333 433 -220c48.667 -82.667 73 -178.667 73 -288v-42zM790.998 591.999c-23.333 102.667 -85.668 154 -187.001 154c-56 0 -101.333 -16.333 -136 -49c-27.333 -26 -44.666 -61 -51.999 -105h375z" />
    <glyph glyph-name="f" unicode="f" horiz-adv-x="708" 
d="M698 658h-230.999v-658h-328v658h-117v270h117v123c0 136.667 34.667 242 104 316c86 92 189.333 138 310 138c48 0 96.333 -11.333 145 -34v-286c-44.667 24.667 -83 37 -115 37c-44.667 0 -77.334 -17 -98.001 -51c-12 -19.333 -18 -67 -18 -143v-100h231v-270z" />
    <glyph glyph-name="g" unicode="g" horiz-adv-x="1263" 
d="M1151 64c0 -81.333 -5.66602 -147.001 -16.999 -197.001c-18 -80 -64.667 -151.667 -140 -215c-95.333 -80 -222 -120 -380 -120c-165.333 0 -297 43.667 -395 131c-65.333 58 -107 118.667 -125 182c-2 6.66699 -4.66699 20.667 -8 42h369
c10.667 -30.667 25 -52.667 43 -66c29.333 -22 66.666 -33 111.999 -33c76 0 134.333 27 175 81c25.333 34 38 82.667 38 146v88c-39.333 -36 -72.333 -61.333 -99 -76c-55.333 -30.667 -120.666 -46 -195.999 -46c-94.667 0 -179.334 24.333 -254.001 73
c-76.667 50 -131.667 118.333 -165 205c-22.667 58.667 -34 122.334 -34 191.001c0 152 48.333 275.667 145 371c90 88.667 198.333 133 325 133c67.333 0 127.333 -13.667 180 -41c31.333 -16.667 64 -44 98 -82v97h328v-864zM839.001 466.999
c0 59.333 -20.333 110.333 -61 153s-90.667 64 -150 64c-66 0 -120 -25.333 -162 -76c-33.333 -40.667 -50 -87.667 -50 -141c0 -59.333 20.5 -110.166 61.5 -152.499s91.167 -63.5 150.5 -63.5c58.667 0 108.5 21.167 149.5 63.5s61.5 93.166 61.5 152.499z" />
    <glyph glyph-name="h" unicode="h" horiz-adv-x="1203" 
d="M1091 0l-328 -0.00195312v470c0 82.667 -9.33301 137.334 -28 164.001c-27.333 39.333 -68.333 59 -123 59c-50.667 0 -92.667 -17 -126 -51c-30.667 -31.333 -46 -79.666 -46 -144.999v-497h-328v1502h328v-691c38 44 73 75 105 93c52.667 30 117.667 45 195 45
c98.667 0 180 -27.333 244 -82c71.333 -61.333 107 -153.333 107 -276v-591z" />
    <glyph glyph-name="i" unicode="i" horiz-adv-x="552" 
d="M460 1285c0 -52 -17.833 -95.833 -53.5 -131.5s-79.5 -53.5 -131.5 -53.5c-51.333 0 -94.833 18 -130.5 54s-53.5 79.667 -53.5 131s17.833 94.833 53.5 130.5s79.167 53.5 130.5 53.5s95 -17.833 131 -53.5s54 -79.167 54 -130.5zM439 0h-328v928h328v-928z" />
    <glyph glyph-name="j" unicode="j" horiz-adv-x="552" 
d="M460 1285c0 -52 -17.833 -95.833 -53.5 -131.5s-79.5 -53.5 -131.5 -53.5c-51.333 0 -94.833 18 -130.5 54s-53.5 79.667 -53.5 131s17.833 94.833 53.5 130.5s79.167 53.5 130.5 53.5s95 -17.833 131 -53.5s54 -79.167 54 -130.5zM439 -464h-328v1392h328v-1392z" />
    <glyph glyph-name="k" unicode="k" horiz-adv-x="1264" 
d="M1261 0h-460l-361 378v-378h-328v1502h328v-908l343 334h450l-465 -428z" />
    <glyph glyph-name="l" unicode="l" horiz-adv-x="552" 
d="M440 0h-328v1502h328v-1502z" />
    <glyph glyph-name="m" unicode="m" horiz-adv-x="1795" 
d="M1682 0l-327.998 0.00390625v459c0 80 -8.33301 134.667 -25 164c-24.667 43.333 -61.667 65 -111 65c-54.667 0 -96.667 -23.667 -126 -71c-20.667 -33.333 -31 -86 -31 -158v-459h-328v459c0 80 -6.66699 132 -20 156c-26.667 48 -67.667 72 -123 72
c-51.333 0 -91.333 -20.667 -120 -62c-10.667 -14.667 -18.334 -34.834 -23.001 -60.501s-7 -60.834 -7 -105.501v-459h-328v928h328v-114c38.667 37.333 74 64.666 106 81.999c58 31.333 122.667 47 194 47c91.333 0 167.333 -23.667 228 -71c30.667 -24 60 -58 88 -102
c25.333 41.333 53.666 74 84.999 98c66 50.667 141.333 76 226 76c69.333 0 131 -16.667 185 -50c58 -36.667 96 -86.334 114 -149.001c10.667 -38 16 -85.333 16 -142v-603z" />
    <glyph glyph-name="n" unicode="n" horiz-adv-x="1203" 
d="M1091 0h-328v470c0 82 -9.33301 136.333 -28 163c-27.333 39.333 -68.333 59 -123 59c-50 0 -92 -17 -126 -51c-30.667 -30.667 -46 -78.667 -46 -144v-497h-328v928h328v-117c38 44 73 75 105 93c52 29.333 117 44 195 44c100 0 181.333 -27 244 -81
c71.333 -61.333 107 -153.333 107 -276v-591z" />
    <glyph glyph-name="o" unicode="o" horiz-adv-x="1267" 
d="M1192 464c0 -128.667 -42.332 -239 -126.999 -331c-102.667 -112 -246.334 -168 -431.001 -168c-185.333 0 -329.333 56 -432 168c-84.667 92 -127 205 -127 339c0 120.667 42.667 227.667 128 321c103.333 112.667 250.333 169 441 169
c175.333 0 315.333 -56.333 420 -169c85.333 -92 128 -201.667 128 -329zM851.001 464c0 60 -21.167 110.833 -63.5 152.5s-93.5 62.5 -153.5 62.5c-68 0 -123.333 -25.333 -166 -76c-34.667 -40.667 -52 -87 -52 -139c0 -52.667 17.333 -99.334 52 -140.001
c42.667 -50.667 98 -76 166 -76c60.667 0 112 20.833 154 62.5s63 92.834 63 153.501z" />
    <glyph glyph-name="p" unicode="p" horiz-adv-x="1270" 
d="M1195 463c0 -158.667 -55.002 -285.334 -165.002 -380.001c-87.333 -75.333 -187.666 -113 -300.999 -113c-66 0 -128 14 -186 42c-33.333 16 -67.666 42.333 -102.999 79v-555h-328v1392h328v-103c29.333 38.667 61 67.334 95 86.001c56 31.333 119.667 47 191 47
c115.333 0 218 -39.667 308 -119c107.333 -94.667 161 -220 161 -376zM853.998 464c0 52.667 -16.667 98.333 -50 137c-42 49.333 -96 74 -162 74c-59.333 0 -109.5 -20.333 -150.5 -61s-61.5 -90.667 -61.5 -150c0 -58.667 20.667 -108.5 62 -149.5s91.333 -61.5 150 -61.5
c66 0 119.667 24.667 161 74c34 40 51 85.667 51 137z" />
    <glyph glyph-name="q" unicode="q" horiz-adv-x="1270" 
d="M1158 -464l-328.002 -0.000976562v555c-35.333 -36.667 -69.666 -63 -102.999 -79c-58 -28 -120 -42 -186 -42c-113.333 0 -213.666 37.667 -300.999 113c-110 94.667 -165 221.334 -165 380.001c0 156 53.667 281.333 161 376c90 79.333 192.667 119 308 119
c71.333 0 135 -15.667 191 -47c32 -18 63.667 -46.667 95 -86v103h328v-1392zM839.998 463.999c0 59.333 -20.5 109.333 -61.5 150s-91.167 61 -150.5 61c-66 0 -119.667 -24.667 -161 -74c-34 -40 -51 -85.667 -51 -137s17 -97 51 -137c41.333 -49.333 95 -74 161 -74
c58.667 0 108.667 20.5 150 61.5s62 90.833 62 149.5z" />
    <glyph glyph-name="r" unicode="r" horiz-adv-x="842" 
d="M808 625c-46 22 -92.666 33 -139.999 33c-108 0 -178 -44 -210 -132c-12 -32 -18 -75 -18 -129v-397h-328v928h328v-152c34.667 54 72 93 112 117c54 32 118 48 192 48c17.333 0 38.666 -1 63.999 -3v-313z" />
    <glyph glyph-name="s" unicode="s" horiz-adv-x="922" 
d="M867 313c0 -98.667 -35.3311 -179.331 -105.998 -241.998c-79.333 -70.667 -191 -106 -335 -106c-127.333 0 -251 35.667 -371 107l119 232c94 -62 181.333 -93 262 -93c68.667 0 103 23.667 103 71c0 24.667 -12 43.667 -36 57c-15.333 8.66699 -50 19 -104 31
c-60.667 13.333 -100.334 23.666 -119.001 30.999c-66.667 26 -111.667 66.667 -135 122c-12.667 30 -19 66 -19 108c0 81.333 27.667 152.333 83 213c71.333 78 181.333 117 330 117c103.333 0 203.666 -20 300.999 -60l-111 -212c-61.333 31.333 -120 47 -176 47
c-66 0 -99 -22.667 -99 -68c0 -20.667 13.333 -37.334 40 -50.001c12 -6 47.333 -15 106 -27c86 -18 149.333 -46.667 190 -86c51.333 -49.333 77 -113.333 77 -192z" />
    <glyph glyph-name="t" unicode="t" horiz-adv-x="675" 
d="M665 658h-187v-658h-328v658h-108v270h108v279h328v-279h187v-270z" />
    <glyph glyph-name="u" unicode="u" horiz-adv-x="1212" 
d="M1101 339c0 -172.667 -81.667 -287.333 -245 -344c-68 -23.333 -151 -35 -249 -35c-192.667 0 -331 47.333 -415 142c-53.333 60 -80 139 -80 237v589h328v-526c0 -58 14 -100.667 42 -128c30 -29.333 71.667 -44 125 -44c52.667 0 94 14.667 124 44
c28 27.333 42 70 42 128v526h328v-589z" />
    <glyph glyph-name="v" unicode="v" horiz-adv-x="1181" 
d="M1181 928l-483 -928h-219l-479 928h369l222 -476l223 476h367z" />
    <glyph glyph-name="w" unicode="w" horiz-adv-x="1857" 
d="M1857 928l-486 -928h-219l-232 509l-222 -509h-221l-477 928h366l222 -489l233 489h206l232 -503l233 503h365z" />
    <glyph glyph-name="x" unicode="x" horiz-adv-x="1344" 
d="M1344 0h-434l-239 276l-238 -276h-433l464 504l-377 424h427l160 -191l163 191h426l-384 -424z" />
    <glyph glyph-name="y" unicode="y" horiz-adv-x="1246" 
d="M1246 928l-745 -1392h-368l315 591l-448 801h381l248 -476l241 476h376z" />
    <glyph glyph-name="z" unicode="z" horiz-adv-x="1067" 
d="M1026 928l-435 -658h391v-270h-941l438 658h-379v270h926z" />
    <glyph glyph-name="braceleft" unicode="{" horiz-adv-x="983" 
d="M694 -301c-24.667 -4 -47.667 -6 -69 -6c-94.667 0 -161 31 -199 93c-29.333 47.333 -44.333 120.666 -45 219.999c0 27.333 1 67.333 3 120c2 55.333 3 95.333 3 120c0 84.667 -7.66699 148.334 -23 191.001c-24.667 66.667 -71 105.334 -139 116.001
c68 10.667 114.333 49.334 139 116.001c15.333 42.667 23 106.334 23 191.001c0 24.667 -1 64.667 -3 120c-2 52.667 -3 92.667 -3 120c0.666992 99.333 15.667 172.666 45 219.999c38 62 104.333 93 199 93c21.333 0 44.333 -2 69 -6c-114.667 -30 -172.667 -131 -174 -303
c0 -31.333 1.66699 -77.333 5 -138c3.33301 -63.333 5 -109 5 -137c0 -82 -9.33301 -143.333 -28 -184c-24.667 -52.667 -68.334 -83.334 -131.001 -92.001c62.667 -8.66699 106.334 -39.334 131.001 -92.001c18.667 -41.333 28 -103 28 -185
c0 -28 -1.66699 -72.833 -5 -134.5s-5 -108.167 -5 -139.5c1.33301 -172 59.333 -273 174 -303z" />
    <glyph glyph-name="bar" unicode="|" horiz-adv-x="258" 
d="M195 0h-129v1194h129v-1194z" />
    <glyph glyph-name="braceright" unicode="}" horiz-adv-x="983" 
d="M758 553c-68 -10.667 -114.333 -49.334 -139 -116.001c-15.333 -42.667 -23 -106.334 -23 -191.001c0 -24.667 1 -64.667 3 -120c2 -52.667 3 -92.667 3 -120c-0.666992 -99.333 -15.667 -172.666 -45 -219.999c-38 -62 -104.333 -93 -199 -93c-21.333 0 -44.333 2 -69 6
c114.667 30 172.667 131 174 303c0 31.333 -1.66699 77.833 -5 139.5s-5 106.5 -5 134.5c0 82 9.33301 143.667 28 185c24.667 52.667 68.334 83.334 131.001 92.001c-62.667 8.66699 -106.334 39.334 -131.001 92.001c-18.667 40.667 -28 102 -28 184
c0 28 1.66699 73.667 5 137c3.33301 60.667 5 106.667 5 138c-1.33301 172 -59.333 273 -174 303c24.667 4 47.667 6 69 6c94.667 0 161 -31 199 -93c29.333 -47.333 44.333 -120.666 45 -219.999c0 -27.333 -1 -67.333 -3 -120c-2 -55.333 -3 -95.333 -3 -120
c0 -84.667 7.66699 -148.334 23 -191.001c24.667 -66.667 71 -105.334 139 -116.001z" />
    <glyph glyph-name="asciitilde" unicode="~" horiz-adv-x="1112" 
d="M1081 645c-90 -158 -193.666 -237 -310.999 -237c-40.667 0 -85.334 9.66699 -134.001 29l-104 46c-80.667 46.667 -148 70 -202 70c-46 0 -88.333 -17 -127 -51c-26.667 -24 -62.334 -67.667 -107.001 -131l-76 100c82 144.667 183.667 217 305 217
c49.333 0 129.333 -25.333 240 -76l105 -37c40.667 -14 75.334 -21 104.001 -21c77.333 0 147 51.667 209 155z" />
    <glyph glyph-name="delete" horiz-adv-x="1229" 
d="M1188 59h-293v469h62v-414h231v-55zM835 59h-350v469h339v-56h-277v-143h260v-55h-260v-160h288v-55zM429 296c0 -68 -15 -122.333 -45 -163c-24 -34 -56.667 -56 -98 -66c-22 -5.33301 -47.333 -8 -76 -8h-169v469h162c36 0 63.667 -2.33301 83 -7
c59.333 -14 101 -52 125 -114c12 -32.667 18 -69.667 18 -111zM365 297c0 89.333 -27.666 144.667 -82.999 166c-16.667 6 -43.334 9 -80.001 9h-99v-358h100c54.667 0 93 11 115 33c31.333 31.333 47 81.333 47 150z" />
    <glyph glyph-name="nonbreakingspace" unicode="&#xa0;" horiz-adv-x="567" 
 />
    <glyph glyph-name="exclamdown" unicode="&#xa1;" horiz-adv-x="510" 
d="M362 850c0 -35.333 -11.833 -65.333 -35.5 -90s-52.5 -37 -86.5 -37s-62.667 12.333 -86 37s-35 54.667 -35 90c0 32 11.833 60.167 35.5 84.5s52.167 36.5 85.5 36.5c34 0 62.833 -12.167 86.5 -36.5s35.5 -52.5 35.5 -84.5zM344 -2h-215v686h215v-686z" />
    <glyph glyph-name="cent" unicode="&#xa2;" horiz-adv-x="1229" 
d="M980 237c-22 -8 -57.668 -17.6689 -107.001 -29.002v-189h-167v177c-10.667 0.666992 -23 1.66699 -37 3c-119.333 13.333 -221.666 69.666 -306.999 168.999c-76 88.667 -114 193 -114 313c0 175.333 67.667 310.333 203 405c66 46 151 76.333 255 91v168h167v-180
c34 -7.33301 69.667 -17.666 107 -30.999v-298c-54.667 46 -110.334 69 -167.001 69c-63.333 0 -116.5 -21.167 -159.5 -63.5s-64.5 -95.166 -64.5 -158.499c0 -73.333 25.667 -130.666 77 -171.999c42.667 -34.667 91.334 -52 146.001 -52c32 0 65.333 7.33301 100 22
c23.333 10 46 26 68 48v-292z" />
    <glyph glyph-name="sterling" unicode="&#xa3;" 
d="M772 711h-194c0 24 -11 44.667 -33 62s-46 26 -72 26c-84.667 0 -127 -39 -127 -117c0 -17.333 3 -41 9 -71c8 -39.333 12.667 -63.333 14 -72h147v-90h-133c9.33301 -52.667 14 -96 14 -130c0 -46 -8 -85.333 -24 -118h391v-201h-660v201c71.333 0 107 31.333 107 94
c0 43.333 -9.66699 94.666 -29 153.999h-78v90h54c-12.667 52.667 -19 95.667 -19 129c0 86.667 29.667 158.334 89 215.001c62 60 143.667 90 245 90c186 0 285.667 -87.333 299 -262z" />
    <glyph glyph-name="currency" unicode="&#xa4;" horiz-adv-x="1365" 
d="M1326 282l-142.999 -144l-210 210c-92 -61.333 -188.667 -92 -290 -92c-94 0 -190 30.333 -288 91l-210 -209l-143 143l210 211c-59.333 87.333 -89 181 -89 281c0 98 30.333 192 91 282l-214 213l145 145l213 -213c91.333 59.333 188.666 89 291.999 89
c93.333 0 185 -29 275 -87l211 209l144 -144l-209 -209c62 -98 93 -193 93 -285c0 -96 -29.667 -189.333 -89 -280zM975.001 773c0 80 -28.499 147.333 -85.499 202s-125.833 82 -206.5 82c-88.667 0 -162.334 -33.333 -221.001 -100c-46.667 -52.667 -70 -114 -70 -184
c0 -80 28.5 -147.5 85.5 -202.5s125.5 -82.5 205.5 -82.5c90 0 164 33.333 222 100c46.667 53.333 70 115 70 185z" />
    <glyph glyph-name="yen" unicode="&#xa5;" horiz-adv-x="1229" 
d="M1222 1365l-298 -476h196v-215h-329l-12 -19v-107h341v-215h-341v-333h-341v333h-329v215h329v107l-11 19h-318v215h187l-289 476h404l208 -392l198 392h405z" />
    <glyph glyph-name="brokenbar" unicode="&#xa6;" horiz-adv-x="1024" 
d="M706 625h-389v740h389v-740zM706 -341h-389v655h389v-655z" />
    <glyph glyph-name="section" unicode="&#xa7;" horiz-adv-x="735" 
d="M639 135c0 -76.667 -24 -140 -72 -190c-50.667 -52 -117.334 -78 -200.001 -78c-184.667 0 -277 95 -277 285h176c0 -92 33 -138 99 -138c72 0 108 37.667 108 113c0 56 -47.667 101 -143 135c-162.667 57.333 -244 151 -244 281c0 87.333 37 154.666 111 201.999
c-74 54 -111 126 -111 216c0 70 25.333 128.333 76 175s117.334 70 200.001 70c98 0 169.667 -31.333 215 -94c33.333 -46 50 -102.667 50 -170h-162c0 78 -32 117 -96 117c-72.667 0 -109 -32.667 -109 -98c0 -55.333 45 -100.666 135 -135.999
c77.333 -30 129.333 -55.667 156 -77c58.667 -46.667 88 -111.667 88 -195c0 -93.333 -33.333 -165 -100 -215c66.667 -47.333 100 -115 100 -203zM473 545c0 45.333 -25.333 77.333 -76 96h-28c-72.667 0 -109 -32.667 -109 -98c0 -24.667 10 -47.5 30 -68.5
s45 -35.167 75 -42.5c72 0 108 37.667 108 113z" />
    <glyph glyph-name="dieresis" unicode="&#xa8;" horiz-adv-x="1024" 
d="M922 1250c0 -49.333 -17.333 -91.333 -52 -126s-76.667 -52 -126 -52s-91.166 17.333 -125.499 52s-51.5 76.667 -51.5 126s17.167 91.166 51.5 125.499s76.166 51.5 125.499 51.5s91.333 -17.167 126 -51.5s52 -76.166 52 -125.499zM458 1250
c0 -49.333 -17.333 -91.333 -52 -126s-76.667 -52 -126 -52s-91.166 17.333 -125.499 52s-51.5 76.667 -51.5 126s17.167 91.166 51.5 125.499s76.166 51.5 125.499 51.5s91.333 -17.167 126 -51.5s52 -76.166 52 -125.499z" />
    <glyph glyph-name="copyright" unicode="&#xa9;" horiz-adv-x="1556" 
d="M1488 683c0 -220 -82.666 -401 -247.999 -543c-132.667 -114 -285 -171 -457 -171c-218.667 0 -399.334 82.667 -542.001 248c-115.333 134 -173 289.333 -173 466c0 178.667 57.333 334 172 466c142.667 164.667 323.667 247 543 247c172 0 324 -56.667 456 -170
c166 -142.667 249 -323.667 249 -543zM1345 683c0 145.333 -45.333 271.668 -136 379.001c-115.333 136 -260.333 204 -435 204c-135.333 0 -256 -46 -362 -138c-134 -116 -201 -264.333 -201 -445s67.333 -329.334 202 -446.001c106 -92 229 -138 369 -138
c137.333 0 259 46.667 365 140c132 116.667 198 264.667 198 444zM1027 294.002l-10 -3.00098c-86.667 -26 -152.667 -39 -198 -39c-134 0 -247.667 47.333 -341 142c-74.667 76 -112 171 -112 285c0 163.333 73 286.333 219 369c72 40.667 148.667 61 230 61
c53.333 0 121 -13.667 203 -41l9 -3v-292l-24 27c-48.667 54.667 -107.667 82 -177 82c-61.333 0 -111.166 -18.667 -149.499 -56s-57.5 -86.666 -57.5 -147.999c0 -58 19.5 -105.667 58.5 -143s87.5 -56 145.5 -56c65.333 0 125.666 26.333 180.999 79l23 22v-286z" />
    <glyph glyph-name="ordfeminine" unicode="&#xaa;" horiz-adv-x="743" 
d="M678 805h-191v60c-41.333 -52 -97 -78 -167 -78c-68 0 -128.333 23.333 -181 70c-62.667 55.333 -94 129 -94 221c0 92.667 32 166.667 96 222c50.667 43.333 109.667 65 177 65c68.667 0 125 -23.333 169 -70v53h191v-543zM684 580h-620v123h620v-123zM492 1076
c0 34.667 -11.832 64.167 -35.499 88.5s-52.834 36.5 -87.501 36.5s-63.834 -12.167 -87.501 -36.5s-35.5 -53.833 -35.5 -88.5c0 -34 12 -63.333 36 -88s53 -37 87 -37c34.667 0 63.834 12.167 87.501 36.5s35.5 53.833 35.5 88.5z" />
    <glyph glyph-name="guillemotleft" unicode="&#xab;" horiz-adv-x="1087" 
d="M1005 152l-186 -131l-311 446l311 444l181 -124l-228 -320zM555 152l-187 -131l-311 446l311 444l181 -124l-228 -320z" />
    <glyph glyph-name="logicalnot" unicode="&#xac;" horiz-adv-x="1024" 
d="M955 0h-382v270h-505v338h887v-608z" />
    <glyph glyph-name="sfthyphen" unicode="&#xad;" horiz-adv-x="1229" 
d="M1099 348h-969v270h969v-270z" />
    <glyph glyph-name="registered" unicode="&#xae;" horiz-adv-x="1556" 
d="M1488 683c0 -220 -82.666 -401 -247.999 -543c-132.667 -114 -285 -171 -457 -171c-218.667 0 -399.334 82.667 -542.001 248c-115.333 134 -173 289.333 -173 466c0 178.667 57.333 334 172 466c142.667 164.667 323.667 247 543 247c172 0 324 -56.667 456 -170
c166 -142.667 249 -323.667 249 -543zM1345 683c0 145.333 -45.333 271.668 -136 379.001c-115.333 136 -260.333 204 -435 204c-135.333 0 -256 -46 -362 -138c-134 -116 -201 -264.333 -201 -445s67.333 -329.334 202 -446.001c106 -92 229 -138 369 -138
c137.333 0 259 46.667 365 140c132 116.667 198 264.667 198 444zM1163 273.002l-310 -0.000976562l-189 274v-274h-246v819h355c102.667 0 179.667 -30.333 231 -91c41.333 -49.333 62 -105.666 62 -168.999c0 -72 -23.667 -130.333 -71 -175
c-24 -22.667 -58 -40.667 -102 -54zM813.001 821.001c0 23.333 -9.33301 43 -28 59s-49.667 24 -93 24h-28v-166h28c59.333 0 97 17 113 51c5.33301 11.333 8 22 8 32z" />
    <glyph glyph-name="macron" unicode="&#xaf;" horiz-adv-x="1024" 
d="M871 1106h-717v201h717v-201z" />
    <glyph glyph-name="degree" unicode="&#xb0;" horiz-adv-x="793" 
d="M711 1038c0 -85.333 -30.667 -158.5 -92 -219.5s-135.333 -91.5 -222 -91.5c-86 0 -159.667 30.5 -221 91.5s-92 134.167 -92 219.5c0 86 30.667 159.833 92 221.5s135 92.5 221 92.5s159.833 -30.833 221.5 -92.5s92.5 -135.5 92.5 -221.5zM633 1038
c0 64.667 -22.5 119.5 -67.5 164.5s-99.833 67.5 -164.5 67.5c-64 0 -118.5 -22.5 -163.5 -67.5s-67.5 -99.833 -67.5 -164.5c0 -64 22.5 -118.5 67.5 -163.5s99.5 -67.5 163.5 -67.5c64.667 0 119.5 22.5 164.5 67.5s67.5 99.5 67.5 163.5z" />
    <glyph glyph-name="plusminus" unicode="&#xb1;" horiz-adv-x="1249" 
d="M1120 385h-415v-303h-123v303h-416v123h416v434h123v-434h415v-123zM1120 -123h-954v123h954v-123z" />
    <glyph glyph-name="twosuperior" unicode="&#xb2;" horiz-adv-x="567" 
d="M506 629l-415.999 0.000976562v84l250 284c24.667 28 37 61.667 37 101c0 28 -8.33301 51.667 -25 71s-37.667 29 -63 29c-56 0 -84 -37.667 -84 -113h-121v31c0 55.333 20 101 60 137c38 34.667 85 52 141 52c61.333 0 111.666 -16.667 150.999 -50
c45.333 -36.667 68 -88.334 68 -155.001c0 -54.667 -17.667 -102.667 -53 -144l-195 -223h250v-104z" />
    <glyph glyph-name="threesuperior" unicode="&#xb3;" horiz-adv-x="567" 
d="M485 791c0 -58 -19.332 -105.999 -57.999 -143.999s-90.334 -57 -155.001 -57c-140.667 0 -211 68.333 -211 205v18h115c0 -86 34.333 -129 103 -129c58.667 0 88 39.667 88 119c0 54 -20.333 90.333 -61 109c-12 5.33301 -44.333 11.333 -97 18v80
c96.667 0 145 36 145 108c0 23.333 -7.5 44.166 -22.5 62.499s-34.167 27.5 -57.5 27.5c-51.333 0 -77 -31.333 -77 -94h-119v31c0 44.667 18.667 82.5 56 113.5s86.333 46.5 147 46.5c50.667 0 93.667 -14 129 -42c42 -34 63 -83 63 -147c0 -71.333 -30 -119 -90 -143
c68 -29.333 102 -90 102 -182z" />
    <glyph glyph-name="acute" unicode="&#xb4;" horiz-adv-x="1024" 
d="M828 1344l-315 -279l-152 112l259 316z" />
    <glyph glyph-name="micro" unicode="&#xb5;" horiz-adv-x="1212" 
d="M1101 339c0 -170 -80.667 -284.333 -242 -343c-68 -24 -144.667 -36 -230 -36c-78 0 -150 11.667 -216 35l27 -459h-328v1392h328v-530c0 -40 5.66699 -70.333 17 -91c28 -51.333 78 -77 150 -77c52.667 0 94 14.667 124 44c28 27.333 42 70 42 128v526h328v-589z" />
    <glyph glyph-name="paragraph" unicode="&#xb6;" horiz-adv-x="1229" 
d="M1145 1164l-150 -0.00195312v-1352h-222v1352h-172v-1352h-222v846l-21 -1c-46 -2 -96.333 7 -151 27c-94.667 34.667 -158.667 95.334 -192 182.001c-16.667 43.333 -25 90 -25 140c0 128.667 47 224.334 141 287.001c72 48 182 72 330 72h684v-201z" />
    <glyph glyph-name="periodcentered" unicode="&#xb7;" horiz-adv-x="621" 
d="M522 485c0 -59.333 -20.501 -109.5 -61.501 -150.5s-91.167 -61.5 -150.5 -61.5c-65.333 0 -118.666 24.667 -159.999 74c-34 40.667 -51 86.667 -51 138c0 52 16.667 97.667 50 137c42 49.333 95.667 74 161 74c58.667 0 108.667 -20.5 150 -61.5s62 -90.833 62 -149.5z
" />
    <glyph glyph-name="cedilla" unicode="&#xb8;" horiz-adv-x="1024" 
d="M793 -261c0 -78 -41.3311 -136.333 -123.998 -175c-62.667 -28.667 -138 -43 -226 -43c-32.667 0 -84.334 5.33301 -155.001 16v118c68 -7.33301 117.667 -11 149 -11c110 0 165 31.333 165 94c0 56 -42.333 84 -127 84c-46.667 0 -90.334 -6.66699 -131.001 -20l57 218
h148l-21 -92c71.333 0 130.333 -13 177 -39c58.667 -33.333 88 -83.333 88 -150z" />
    <glyph glyph-name="onesuperior" unicode="&#xb9;" horiz-adv-x="567" 
d="M358 629h-120.001v514c-57.333 -38.667 -104.666 -60.667 -141.999 -66v109c62.667 18 114.667 51.333 156 100h106v-657z" />
    <glyph glyph-name="ordmasculine" unicode="&#xba;" horiz-adv-x="740" 
d="M697 1076c0 -74.667 -25.001 -139 -75.001 -193c-60 -65.333 -144 -98 -252 -98c-107.333 0 -191 32.667 -251 98c-50 54 -75 118.333 -75 193c0 74 25 138.333 75 193c60.667 66 144.334 99 251.001 99c107.333 0 191.333 -32.667 252 -98c50 -54 75 -118.667 75 -194z
M679.999 580h-620v123h620v-123zM495.999 1077c0 35.333 -12.167 65.333 -36.5 90s-54.166 37 -89.499 37c-34.667 0 -64.167 -12.5 -88.5 -37.5s-36.5 -54.833 -36.5 -89.5s12.167 -64.667 36.5 -90s53.833 -38 88.5 -38c35.333 0 65.166 12.5 89.499 37.5
s36.5 55.167 36.5 90.5z" />
    <glyph glyph-name="guillemotright" unicode="&#xbb;" horiz-adv-x="1087" 
d="M1030 467l-311 -446l-186 131l233 315l-228 320l181 124zM580 467l-311 -446l-187 131l233 315l-228 320l182 124z" />
    <glyph glyph-name="onequarter" unicode="&#xbc;" horiz-adv-x="1360" 
d="M1309 143h-95v-143h-120v143h-256v138l209 366h167v-395h95v-109zM1022 1087l-588 -1112h-133l600 1112h121zM334 414h-121.001v514c-57.333 -38.667 -104.333 -60.667 -141 -66v109c62.667 18 114.334 51.333 155.001 100h107v-657zM1094 252v262l-156 -262h156z" />
    <glyph glyph-name="onehalf" unicode="&#xbd;" horiz-adv-x="1360" 
d="M1290 0l-415.999 0.00292969v84l250 285c24.667 28 37 61.333 37 100c0 28 -8.33301 51.667 -25 71s-37.667 29 -63 29c-56 0 -84 -37.333 -84 -112h-121v30c0 55.333 19.667 100.666 59 135.999s86.666 53 141.999 53c61.333 0 112 -16.667 152 -50
c44.667 -36.667 67 -88.334 67 -155.001c0 -54.667 -17.667 -102.334 -53 -143.001l-195 -224h250v-104zM991.001 1096l-590 -1110h-129l596 1110h123zM334.001 414.003h-121.001v514c-57.333 -38.667 -104.333 -60.667 -141 -66v109c62.667 18 114.334 51.333 155.001 100
h107v-657z" />
    <glyph glyph-name="threequarters" unicode="&#xbe;" horiz-adv-x="1360" 
d="M1309 143h-95v-143h-120v143h-256v138l209 366h167v-395h95v-109zM1073 1087l-588 -1107h-131l596 1107h123zM485 575c0 -57.333 -19.332 -104.999 -57.999 -142.999s-90.334 -57 -155.001 -57c-140.667 0 -211 68.333 -211 205v18h115c0 -86 34.333 -129 103 -129
c58.667 0 88 39.667 88 119c0 54 -20.333 90.333 -61 109c-12 5.33301 -44.333 11.333 -97 18v80c96.667 0 145 36 145 108c0 23.333 -7.5 44.166 -22.5 62.499s-34.167 27.5 -57.5 27.5c-51.333 0 -77 -31.333 -77 -94h-119v31c0 44.667 18.667 82.5 56 113.5
s86.333 46.5 147 46.5c50.667 0 93.667 -14 129 -42c42 -34 63 -83 63 -147c0 -71.333 -30 -119 -90 -143c68 -29.333 102 -90.333 102 -183zM1094 252.001v262l-156 -262h156z" />
    <glyph glyph-name="questiondown" unicode="&#xbf;" horiz-adv-x="965" 
d="M539 844c0 -32.667 -11.667 -60.667 -35 -84s-51.333 -35 -84 -35s-60.667 11.667 -84 35s-35 51.333 -35 84s11.5 60.334 34.5 83.001s51.167 34 84.5 34c32.667 0 60.667 -11.333 84 -34s35 -50.334 35 -83.001zM784 276
c-17.333 -84.667 -55.335 -153.999 -114.002 -207.999c-64 -58.667 -142 -88 -234 -88c-103.333 0 -187.833 31.667 -253.5 95s-98.5 144 -98.5 242c0 104.667 31 186 93 244c46.667 44 94 66 142 66v53h201v-244c-36 15.333 -64 23 -84 23
c-39.333 0 -72.333 -13.667 -99 -41s-40 -60.333 -40 -99s14 -71.834 42 -99.501s60.333 -41.5 97 -41.5c32.667 0 63.334 12.667 92.001 38s45.334 54.333 50.001 87z" />
    <glyph glyph-name="multiply" unicode="&#xd7;" horiz-adv-x="1249" 
d="M1073 80l-67 -74l-363 373l-362 -373l-74 74l362 373l-362 366l74 74l362 -367l363 373l67 -74l-356 -372z" />
    <glyph glyph-name="divide" unicode="&#xf7;" horiz-adv-x="1249" 
d="M748 770c0 -30.667 -10.833 -56.334 -32.5 -77.001s-47.834 -31 -78.501 -31s-56.834 10.333 -78.501 31s-32.5 46.334 -32.5 77.001s10.833 56.834 32.5 78.501s47.834 32.5 78.501 32.5s56.834 -10.833 78.501 -32.5s32.5 -47.834 32.5 -78.501zM1120 385h-954v123h954
v-123zM748 121c0 -30.667 -10.833 -56.5 -32.5 -77.5s-47.834 -31.5 -78.501 -31.5s-56.834 10.5 -78.501 31.5s-32.5 46.833 -32.5 77.5s10.833 56.667 32.5 78s47.834 32 78.501 32s56.834 -10.667 78.501 -32s32.5 -47.333 32.5 -78z" />
    <glyph glyph-name="florin" unicode="&#x192;" horiz-adv-x="1229" 
d="M1191 1435l-52 -284c-52.667 33.333 -100 50 -142 50c-64.667 0 -107.667 -56.667 -129 -170l-23 -123h200l-25 -133h-198l-96 -530c-34.667 -191.333 -90.334 -333.333 -167.001 -426c-37.333 -44.667 -78 -78 -122 -100c-70.667 -35.333 -159.667 -53 -267 -53
c-55.333 0 -117.666 6 -186.999 18l53 299c54.667 -13.333 100 -20 136 -20c73.333 0 126.333 27.667 159 83c26 44 52 138.333 78 283l80 446h-156l21 133h160l41 217c25.333 133.333 77.333 231 156 293c68 53.333 151 80 249 80c78.667 0 141.334 -12.667 188.001 -38
c11.333 -6 25.666 -14.333 42.999 -25z" />
    <glyph glyph-name="sheva" unicode="&#x5b0;" horiz-adv-x="0" 
d="M152 -219c0 -22 -7.33301 -40.5 -22 -55.5s-32.667 -22.5 -54 -22.5s-39.333 7.5 -54 22.5s-22 33.5 -22 55.5c0 20.667 7.5 38.5 22.5 53.5s32.833 22.5 53.5 22.5c20 0 37.667 -7.5 53 -22.5s23 -32.833 23 -53.5zM152 -440c0 -22 -7.33301 -40.5 -22 -55.5
s-32.667 -22.5 -54 -22.5s-39.333 7.5 -54 22.5s-22 33.5 -22 55.5c0 20 7.5 37.5 22.5 52.5s32.833 22.5 53.5 22.5c20 0 37.667 -7.5 53 -22.5s23 -32.5 23 -52.5z" />
    <glyph glyph-name="hatafsegol" unicode="&#x5b1;" horiz-adv-x="0" 
d="M698 -219c0 -22 -7.16797 -40.5 -21.501 -55.5s-32.166 -22.5 -53.499 -22.5s-39.333 7.5 -54 22.5s-22 33.5 -22 55.5c0 20.667 7.5 38.5 22.5 53.5s32.833 22.5 53.5 22.5c20 0 37.5 -7.5 52.5 -22.5s22.5 -32.833 22.5 -53.5zM697.999 -440
c0 -22 -7.16797 -40.5 -21.501 -55.5s-32.166 -22.5 -53.499 -22.5s-39.333 7.5 -54 22.5s-22 33.5 -22 55.5c0 20 7.5 37.5 22.5 52.5s32.833 22.5 53.5 22.5c20 0 37.5 -7.5 52.5 -22.5s22.5 -32.5 22.5 -52.5zM425.998 -219c0 -22 -7.33301 -40.5 -22 -55.5
s-32.667 -22.5 -54 -22.5s-39.333 7.5 -54 22.5s-22 33.5 -22 55.5c0 20.667 7.5 38.5 22.5 53.5s32.833 22.5 53.5 22.5s38.5 -7.5 53.5 -22.5s22.5 -32.833 22.5 -53.5zM151.998 -219c0 -22 -7.33301 -40.5 -22 -55.5s-32.667 -22.5 -54 -22.5s-39.333 7.5 -54 22.5
s-22 33.5 -22 55.5c0 20.667 7.5 38.5 22.5 53.5s32.833 22.5 53.5 22.5c20 0 37.667 -7.5 53 -22.5s23 -32.833 23 -53.5zM288.998 -440c0 -22 -7.33301 -40.5 -22 -55.5s-32.667 -22.5 -54 -22.5s-39.333 7.5 -54 22.5s-22 33.5 -22 55.5c0 20 7.5 37.5 22.5 52.5
s32.833 22.5 53.5 22.5s38.5 -7.5 53.5 -22.5s22.5 -32.5 22.5 -52.5z" />
    <glyph glyph-name="hatafpatah" unicode="&#x5b2;" horiz-adv-x="0" 
d="M653 -219c0 -22 -7.16797 -40.5 -21.501 -55.5s-32.166 -22.5 -53.499 -22.5c-22 0 -40.167 7.5 -54.5 22.5s-21.5 33.5 -21.5 55.5c0 20.667 7.5 38.5 22.5 53.5s32.833 22.5 53.5 22.5c20 0 37.5 -7.5 52.5 -22.5s22.5 -32.833 22.5 -53.5zM652.999 -440
c0 -22 -7.16797 -40.5 -21.501 -55.5s-32.166 -22.5 -53.499 -22.5c-22 0 -40.167 7.5 -54.5 22.5s-21.5 33.5 -21.5 55.5c0 20 7.5 37.5 22.5 52.5s32.833 22.5 53.5 22.5c20 0 37.5 -7.5 52.5 -22.5s22.5 -32.5 22.5 -52.5zM376.998 -248h-377v90h377v-90z" />
    <glyph glyph-name="hatafqamats" unicode="&#x5b3;" horiz-adv-x="0" 
d="M653 -219c0 -22 -7.16797 -40.5 -21.501 -55.5s-32.166 -22.5 -53.499 -22.5c-22 0 -40.167 7.5 -54.5 22.5s-21.5 33.5 -21.5 55.5c0 20.667 7.5 38.5 22.5 53.5s32.833 22.5 53.5 22.5c20 0 37.5 -7.5 52.5 -22.5s22.5 -32.833 22.5 -53.5zM652.999 -440
c0 -22 -7.16797 -40.5 -21.501 -55.5s-32.166 -22.5 -53.499 -22.5c-22 0 -40.167 7.5 -54.5 22.5s-21.5 33.5 -21.5 55.5c0 20 7.5 37.5 22.5 52.5s32.833 22.5 53.5 22.5c20 0 37.5 -7.5 52.5 -22.5s22.5 -32.5 22.5 -52.5zM376.998 -248l-162 -0.000976562
c8 -25.333 13.333 -60 16 -104c1.33301 -35.333 3 -71 5 -107h-82l4 107c2.66699 42.667 8.66699 77.334 18 104.001h-176v90h377v-90z" />
    <glyph glyph-name="hiriq" unicode="&#x5b4;" horiz-adv-x="0" 
d="M152 -219c0 -22 -7.33301 -40.5 -22 -55.5s-32.667 -22.5 -54 -22.5s-39.333 7.5 -54 22.5s-22 33.5 -22 55.5c0 20.667 7.5 38.5 22.5 53.5s32.833 22.5 53.5 22.5c20 0 37.667 -7.5 53 -22.5s23 -32.833 23 -53.5z" />
    <glyph glyph-name="tsere" unicode="&#x5b5;" horiz-adv-x="0" 
d="M426 -219c0 -22 -7.33301 -40.5 -22 -55.5s-32.667 -22.5 -54 -22.5s-39.333 7.5 -54 22.5s-22 33.5 -22 55.5c0 20.667 7.5 38.5 22.5 53.5s32.833 22.5 53.5 22.5s38.5 -7.5 53.5 -22.5s22.5 -32.833 22.5 -53.5zM152 -219c0 -22 -7.33301 -40.5 -22 -55.5
s-32.667 -22.5 -54 -22.5s-39.333 7.5 -54 22.5s-22 33.5 -22 55.5c0 20.667 7.5 38.5 22.5 53.5s32.833 22.5 53.5 22.5c20 0 37.667 -7.5 53 -22.5s23 -32.833 23 -53.5z" />
    <glyph glyph-name="segol" unicode="&#x5b6;" horiz-adv-x="0" 
d="M426 -219c0 -22 -7.33301 -40.5 -22 -55.5s-32.667 -22.5 -54 -22.5s-39.333 7.5 -54 22.5s-22 33.5 -22 55.5c0 20.667 7.5 38.5 22.5 53.5s32.833 22.5 53.5 22.5s38.5 -7.5 53.5 -22.5s22.5 -32.833 22.5 -53.5zM152 -219c0 -22 -7.33301 -40.5 -22 -55.5
s-32.667 -22.5 -54 -22.5s-39.333 7.5 -54 22.5s-22 33.5 -22 55.5c0 20.667 7.5 38.5 22.5 53.5s32.833 22.5 53.5 22.5c20 0 37.667 -7.5 53 -22.5s23 -32.833 23 -53.5zM289 -440c0 -22 -7.33301 -40.5 -22 -55.5s-32.667 -22.5 -54 -22.5s-39.333 7.5 -54 22.5
s-22 33.5 -22 55.5c0 20 7.5 37.5 22.5 52.5s32.833 22.5 53.5 22.5s38.5 -7.5 53.5 -22.5s22.5 -32.5 22.5 -52.5z" />
    <glyph glyph-name="patah" unicode="&#x5b7;" horiz-adv-x="0" 
d="M377 -248h-377v90h377v-90z" />
    <glyph glyph-name="qamats" unicode="&#x5b8;" horiz-adv-x="0" 
d="M377 -248l-162 -0.000976562c8 -25.333 13.333 -60 16 -104c1.33301 -35.333 3 -71 5 -107h-82l4 107c2.66699 42.667 8.66699 77.334 18 104.001h-176v90h377v-90z" />
    <glyph glyph-name="holam" unicode="&#x5b9;" horiz-adv-x="0" 
d="M152 1133c0 -22 -7.33301 -40.5 -22 -55.5s-32.667 -22.5 -54 -22.5s-39.333 7.5 -54 22.5s-22 33.5 -22 55.5c0 20 7.5 37.5 22.5 52.5s32.833 22.5 53.5 22.5c20 0 37.667 -7.5 53 -22.5s23 -32.5 23 -52.5z" />
    <glyph glyph-name="qibuts" unicode="&#x5bb;" horiz-adv-x="0" 
d="M557 -440c0 -22 -7.33398 -40.5 -22.001 -55.5s-32.667 -22.5 -54 -22.5s-39.166 7.5 -53.499 22.5s-21.5 33.5 -21.5 55.5c0 20 7.5 37.5 22.5 52.5s32.5 22.5 52.5 22.5c20.667 0 38.5 -7.5 53.5 -22.5s22.5 -32.5 22.5 -52.5zM353.999 -330
c0 -21.333 -7.16797 -39.666 -21.501 -54.999s-32.166 -23 -53.499 -23c-22 0 -40.167 7.66699 -54.5 23s-21.5 33.666 -21.5 54.999c0 20.667 7.5 38.5 22.5 53.5s32.833 22.5 53.5 22.5c20 0 37.5 -7.5 52.5 -22.5s22.5 -32.833 22.5 -53.5zM151.998 -219
c0 -22 -7.33301 -40.5 -22 -55.5s-32.667 -22.5 -54 -22.5s-39.333 7.5 -54 22.5s-22 33.5 -22 55.5c0 20.667 7.5 38.5 22.5 53.5s32.833 22.5 53.5 22.5c20 0 37.667 -7.5 53 -22.5s23 -32.833 23 -53.5z" />
    <glyph glyph-name="dagesh" unicode="&#x5bc;" horiz-adv-x="0" 
d="M152 459c0 -22 -7.33301 -40.5 -22 -55.5s-32.667 -22.5 -54 -22.5s-39.333 7.5 -54 22.5s-22 33.5 -22 55.5c0 20 7.5 37.667 22.5 53s32.833 23 53.5 23c20 0 37.667 -7.66699 53 -23s23 -33 23 -53z" />
    <glyph glyph-name="meteg" unicode="&#x5bd;" horiz-adv-x="0" 
d="M92 -418h-92v260h92v-260z" />
    <glyph glyph-name="maqaf" unicode="&#x5be;" horiz-adv-x="397" 
d="M397 721h-397v213h397v-213z" />
    <glyph glyph-name="rafe" unicode="&#x5bf;" horiz-adv-x="0" 
d="M501 1062h-377v90h377v-90z" />
    <glyph glyph-name="paseq" unicode="&#x5c0;" horiz-adv-x="614" 
d="M389 0h-168v1475h168v-1475z" />
    <glyph glyph-name="shindot" unicode="&#x5c1;" horiz-adv-x="0" 
d="M1147 1133c0 -22 -7.33301 -40.5 -22 -55.5s-32.667 -22.5 -54 -22.5s-39.333 7.5 -54 22.5s-22 33.5 -22 55.5c0 20 7.5 37.5 22.5 52.5s32.833 22.5 53.5 22.5s38.5 -7.5 53.5 -22.5s22.5 -32.5 22.5 -52.5z" />
    <glyph glyph-name="sindot" unicode="&#x5c2;" horiz-adv-x="0" 
d="M311 1133c0 -22 -7.16797 -40.5 -21.501 -55.5s-32.166 -22.5 -53.499 -22.5c-22 0 -40.167 7.5 -54.5 22.5s-21.5 33.5 -21.5 55.5c0 20 7.5 37.5 22.5 52.5s32.833 22.5 53.5 22.5c20 0 37.5 -7.5 52.5 -22.5s22.5 -32.5 22.5 -52.5z" />
    <glyph glyph-name="sofpasuq" unicode="&#x5c3;" horiz-adv-x="567" 
d="M348 682c0 -38 -13.333 -70.667 -40 -98s-59 -41 -97 -41c-38.667 0 -71.5 13.667 -98.5 41s-40.5 60 -40.5 98c0 40 13.333 73.5 40 100.5s59.667 40.5 99 40.5c38 0 70.333 -13.5 97 -40.5s40 -60.5 40 -100.5zM348 94c0 -38.667 -13.333 -71.5 -40 -98.5
s-59 -40.5 -97 -40.5c-38.667 0 -71.5 13.5 -98.5 40.5s-40.5 59.833 -40.5 98.5c0 37.333 13.5 69.5 40.5 96.5s59.833 40.5 98.5 40.5c37.333 0 69.5 -13.5 96.5 -40.5s40.5 -59.167 40.5 -96.5z" />
    <glyph glyph-name="alef" unicode="&#x5d0;" horiz-adv-x="1077" 
d="M987 0h-247.999l-348 532c-7.33301 0 -16 -6.33301 -26 -19s-15 -25.334 -15 -38.001l19 -90l80 -385h-334v131c0 46.667 7.33301 70 22 70h60l-47 202c-10 41.333 -15 71 -15 89c0 102.667 49.333 172 148 208l-150 234h205c24.667 0 40.667 -2.33301 48 -7
c5.33301 -3.33301 14.666 -14.666 27.999 -33.999l245 -369c66 22 99 70.667 99 146v63h-90v201h233c44 -18 66 -65.667 66 -143v-109c0 -101.333 -67.667 -211.333 -203 -330z" />
    <glyph glyph-name="bet" unicode="&#x5d1;" horiz-adv-x="907" 
d="M823 0h-754.999v201h456v532h-463v201h578c29.333 0 53.666 -11.167 72.999 -33.5s29 -48.833 29 -79.5v-620h82v-201z" />
    <glyph glyph-name="gimel" unicode="&#x5d2;" horiz-adv-x="682" 
d="M596 0h-156l-69 180l-80 -180h-234l76 201h238l-45 532h-121v201h268c26.667 0 41 -11 43 -33z" />
    <glyph glyph-name="dalet" unicode="&#x5d3;" 
d="M784 780c0 -31.333 -9.33301 -47 -28 -47h-47v-733h-217v733h-449v201h702c26 0 39 -15 39 -45v-109z" />
    <glyph glyph-name="he" unicode="&#x5d4;" horiz-adv-x="1020" 
d="M920 0l-218 -0.000976562v733h-587v201h708c42.667 0 70.667 -19.667 84 -59c8.66699 -25.333 13 -72.666 13 -141.999v-733zM332 -0.000976562h-217v524h217v-524z" />
    <glyph glyph-name="vav" unicode="&#x5d5;" horiz-adv-x="510" 
d="M418 0h-217v733h-129v201h288c18 0 32.667 -10.333 44 -31c9.33301 -17.333 14 -35 14 -53v-850z" />
    <glyph glyph-name="zayin" unicode="&#x5d6;" horiz-adv-x="510" 
d="M463 733h-43l-51 -158v-575h-217v528l63 205h-135v201h295c58.667 0 88 -24.667 88 -74v-127z" />
    <glyph glyph-name="het" unicode="&#x5d7;" horiz-adv-x="1020" 
d="M920 0h-218v733h-385v-733h-217v586l66 147h-66v201h721c66 0 99 -30 99 -90v-844z" />
    <glyph glyph-name="tet" unicode="&#x5d8;" horiz-adv-x="1020" 
d="M924 0h-820.001v565l62 168h-76v201h299c27.333 0 41 -17 41 -51v-150h-51l-57 -186v-346h385v471c-17.333 30.667 -47.666 49.667 -90.999 57l-63 -182h-113l119 397c94 0 173.667 -21.667 239 -65c72 -48 114 -115 126 -201v-678z" />
    <glyph glyph-name="yod" unicode="&#x5d9;" horiz-adv-x="510" 
d="M418 494h-221v239h-136v201h301c37.333 0 56 -22.667 56 -68v-372z" />
    <glyph glyph-name="kaffinal" unicode="&#x5da;" 
d="M760 -289l-217 -0.000976562v1022h-486v201h607c42 0 69.667 -19.667 83 -59c8.66699 -25.333 13 -72.666 13 -141.999v-1022z" />
    <glyph glyph-name="kaf" unicode="&#x5db;" 
d="M760 201c-15.333 -134 -77.667 -201 -187 -201h-493v201h373c45.333 0 75.333 23.667 90 71v461h-475v201h632c40 0 60 -20.667 60 -62v-671z" />
    <glyph glyph-name="lamed" unicode="&#x5dc;" 
d="M762 324c0 -82 -29 -152.667 -87 -212c-74 -74.667 -181.667 -112 -323 -112h-80v201h80c128.667 0 193 47 193 141v391h-492v395h209v-194h436c42.667 0 64 -25.333 64 -76v-534z" />
    <glyph glyph-name="memfinal" unicode="&#x5dd;" horiz-adv-x="1020" 
d="M913 0l-798 0.000976562v590l47 143h-72v201h692c33.333 0 63.5 -11.333 90.5 -34s40.5 -50.334 40.5 -83.001v-817zM696 201.001v532h-364v-532h364z" />
    <glyph glyph-name="mem" unicode="&#x5de;" horiz-adv-x="1077" 
d="M981 0h-483.001v201h266v424c-20.667 86 -87 129 -199 129c-49.333 0 -92.666 -14 -129.999 -42c-44 -32 -66 -74.667 -66 -128v-584h-217v584c0 30 19.667 79.667 59 149h-131v201h211c28 -18 48.333 -42.667 61 -74c55.333 61.333 138 92 248 92
c104.667 0 191.5 -30.5 260.5 -91.5s109.167 -143.833 120.5 -248.5v-612z" />
    <glyph glyph-name="nunfinal" unicode="&#x5df;" horiz-adv-x="510" 
d="M424 735l-55.001 -135v-889h-217v856l63 166h-129v201h287c12.667 0 24.334 -6.83301 35.001 -20.5s16 -30.167 16 -49.5v-129z" />
    <glyph glyph-name="nun" unicode="&#x5e0;" horiz-adv-x="567" 
d="M469 0h-383v201h166v532h-137v201h305c32.667 0 49 -22 49 -66v-868z" />
    <glyph glyph-name="nun" unicode="&#xf8ff;" horiz-adv-x="567" 
d="M469 0h-383v201h166v532h-137v201h305c32.667 0 49 -22 49 -66v-868z" />
    <glyph glyph-name="samekh" unicode="&#x5e1;" horiz-adv-x="1020" 
d="M928 274c-30.667 -97.333 -85.667 -171.333 -165 -222c-72.667 -46.667 -159.667 -70 -261 -70c-116.667 0 -212.5 35.333 -287.5 106s-112.5 162 -112.5 274v205l60 166h-76v201h756c57.333 0 86 -29.333 86 -88v-572zM711 332v401h-396v-405
c28.667 -96 95.667 -144 201 -144c54.667 0 100 15.667 136 47c31.333 27.333 51 61 59 101z" />
    <glyph glyph-name="ayin" unicode="&#x5e2;" horiz-adv-x="965" 
d="M891 236c0 -60.667 -21.333 -115.167 -64 -163.5s-91.667 -72.5 -147 -72.5h-629v201h144v532h-115v201h289c28.667 0 43 -19 43 -57v-676h213c32.667 0 49 17.667 49 53v479h-121v201h285c35.333 0 53 -20.667 53 -62v-636z" />
    <glyph glyph-name="pefinal" unicode="&#x5e3;" horiz-adv-x="1020" 
d="M938 -289l-217 0.000976562v1022h-383l-14 -153h182v-195h-377c-1.33301 39.333 -1.33301 102.666 0 189.999c0 37.333 17 90 51 158h-80v201h779c39.333 0 59 -17.667 59 -53v-1170z" />
    <glyph glyph-name="pe" unicode="&#x5e4;" horiz-adv-x="1020" 
d="M924 188c0 -54.667 -22.168 -99.667 -66.501 -135s-104.166 -53 -179.499 -53h-567v201h518c52 0 78 25 78 75v457h-383v-153h125v-195h-320v190l61 158h-81v201h747c45.333 0 68 -19 68 -57v-689z" />
    <glyph glyph-name="tsadifinal" unicode="&#x5e5;" horiz-adv-x="1020" 
d="M936 700c0 -264.667 -144.667 -397 -434 -397h-70v-592h-221v1022h-125v201h283c39.333 0 59 -25.333 59 -76v-362h49c161.333 0 242 66.667 242 200v37h-125v201h283c39.333 0 59 -25.333 59 -76v-158z" />
    <glyph glyph-name="tsadi" unicode="&#x5e6;" horiz-adv-x="1020" 
d="M922 0l-818 0.000976562v201h525l-432 395v137h-103v201h260c31.333 0 47 -19 47 -57v-201l187 -172c37.333 4.66699 68.333 25.667 93 63c22.667 33.333 34 69.666 34 108.999v57h-113v201h272c32 0 48 -19 48 -57v-220c0 -135.333 -61 -232 -183 -290l183 -166v-201z
" />
    <glyph glyph-name="qof" unicode="&#x5e7;" horiz-adv-x="1020" 
d="M918 332c0 -120.667 -42.001 -209.666 -126.001 -266.999c-64 -43.333 -144.333 -65 -241 -65h-51v201h43c53.333 0 94 15.333 122 46c23.333 25.333 35 55.666 35 90.999v395h-596v201h748c18.667 0 34.334 -7.66699 47.001 -23s19 -33 19 -53v-526zM335.999 -288.999
h-217v817h217v-817z" />
    <glyph glyph-name="resh" unicode="&#x5e8;" 
d="M760 0l-217 -0.000976562v733h-486v201h607c42 0 69.667 -19.667 83 -59c8.66699 -25.333 13 -72.666 13 -141.999v-733z" />
    <glyph glyph-name="shin" unicode="&#x5e9;" horiz-adv-x="1360" 
d="M1251 180c-14.667 -57.333 -43.667 -102.333 -87 -135c-39.333 -30 -83.333 -45 -132 -45h-919v582l45 151h-97v201h287c23.333 -13.333 35 -41.333 35 -84c-1.33301 -57.333 -1.33301 -96.333 0 -117h-53v-532h248v532h-107v201h289c23.333 -13.333 35 -41.333 35 -84
v-649h186c35.333 0 53 19 53 57v475h-119v201h302c22.667 -13.333 34 -41.333 34 -84v-670z" />
    <glyph glyph-name="tav" unicode="&#x5ea;" horiz-adv-x="1077" 
d="M985 0h-217v733h-371v-733h-313v201h96v358l72 174h-86v201h721c65.333 0 98 -41.667 98 -125v-809z" />
    <glyph glyph-name="vavdbl" unicode="&#x5f0;" horiz-adv-x="960" 
d="M868 0h-216.999v733h-129v201h289c17.333 0 31.666 -10.333 42.999 -31c9.33301 -17.333 14 -35 14 -53v-850zM418.001 0h-217v733h-129v201h288c18 0 32.667 -10.333 44 -31c9.33301 -17.333 14 -35 14 -53v-850z" />
    <glyph glyph-name="vavyod" unicode="&#x5f1;" horiz-adv-x="960" 
d="M868 0h-216.999v733h-129v201h289c17.333 0 31.666 -10.333 42.999 -31c9.33301 -17.333 14 -35 14 -53v-850zM418.001 494h-221v239h-136v201h301c37.333 0 56 -22.667 56 -68v-372z" />
    <glyph glyph-name="yoddbl" unicode="&#x5f2;" horiz-adv-x="960" 
d="M870 494h-221v239h-135v201h301c36.667 0 55 -22.667 55 -68v-372zM418 494h-221v239h-135v201h301c36.667 0 55 -22.667 55 -68v-372z" />
    <glyph glyph-name="geresh" unicode="&#x5f3;" horiz-adv-x="453" 
d="M369 1063l-160 -363h-148l101 363h207z" />
    <glyph glyph-name="gershayim" unicode="&#x5f4;" horiz-adv-x="793" 
d="M721 1067l-158 -371h-153l104 371h207zM387 1067l-162 -371h-149l100 371h211z" />
    <glyph glyph-name="lefttoright" unicode="&#x200e;" horiz-adv-x="831" 
d="M768 918l-336 -312v221h-143v-827h-176v1004h319v225z" />
    <glyph glyph-name="righttoleft" unicode="&#x200f;" horiz-adv-x="831" 
d="M719 0h-176v827h-144v-221l-336 312l336 311v-225h320v-1004z" />
    <glyph glyph-name="endash" unicode="&#x2013;" horiz-adv-x="1229" 
d="M1099 348h-969v270h969v-270z" />
    <glyph glyph-name="quotedash" unicode="&#x2014;" horiz-adv-x="1570" 
d="M1570 348h-1570v270h1570v-270z" />
    <glyph glyph-name="quoteleft" unicode="&#x2018;" horiz-adv-x="707" 
d="M639 1365l-234 -600h-309l333 600h210z" />
    <glyph glyph-name="quoteright" unicode="&#x2019;" horiz-adv-x="707" 
d="M611 1365l-333 -600h-210l235 600h308z" />
    <glyph glyph-name="quotesinglbase" unicode="&#x201a;" horiz-adv-x="707" 
d="M611 347l-333 -601h-210l235 601h308z" />
    <glyph glyph-name="quotedblleft" unicode="&#x201c;" horiz-adv-x="1171" 
d="M1104 1365l-235 -600h-309l333 600h211zM639 1365l-234 -600h-309l333 600h210z" />
    <glyph glyph-name="quotedblright" unicode="&#x201d;" horiz-adv-x="1171" 
d="M1076 1365l-334 -600h-210l235 600h309zM611 1365l-333 -600h-210l235 600h308z" />
    <glyph glyph-name="quotedblbase" unicode="&#x201e;" horiz-adv-x="1171" 
d="M1076 347l-334 -601h-210l235 601h309zM611 347l-333 -601h-210l235 601h308z" />
    <glyph glyph-name="dagger" unicode="&#x2020;" horiz-adv-x="1229" 
d="M1085 938h-322v-1252h-300v1252h-319v259h319v305h300v-305h322v-259z" />
    <glyph glyph-name="daggerdbl" unicode="&#x2021;" horiz-adv-x="1229" 
d="M1084 232h-318v-546h-300v546h-321v259h321v484h-321v259h321v268h300v-268h318v-259h-318v-484h318v-259z" />
    <glyph glyph-name="bullet" unicode="&#x2022;" horiz-adv-x="1365" 
d="M969 694c0 -87.333 -33 -159.333 -99 -216c-52.667 -45.333 -113.667 -68 -183 -68c-88 0 -160.333 33 -217 99c-46 53.333 -69 115 -69 185c0 71.333 23 133.333 69 186c56.667 65.333 129 98 217 98c68 0 128.667 -22.667 182 -68
c66.667 -56.667 100 -128.667 100 -216z" />
    <glyph glyph-name="ellipsis" unicode="&#x2026;" horiz-adv-x="1864" 
d="M1765 174c0 -59.333 -20.5 -109.501 -61.5 -150.501s-91.167 -61.5 -150.5 -61.5c-65.333 0 -119 25 -161 75c-34 40.667 -51 86.334 -51 137.001c0 52.667 16.667 98.667 50 138c42 49.333 96 74 162 74c59.333 0 109.5 -20.5 150.5 -61.5s61.5 -91.167 61.5 -150.5z
M1144 173.999c0 -59.333 -20.5 -109.501 -61.5 -150.501s-91.167 -61.5 -150.5 -61.5c-65.333 0 -119 25 -161 75c-34 40.667 -51 86.334 -51 137.001c0 52 17 98 51 138c42 49.333 95.667 74 161 74c59.333 0 109.5 -20.5 150.5 -61.5s61.5 -91.167 61.5 -150.5z
M523 173.998c0 -59.333 -20.5 -109.501 -61.5 -150.501s-91.167 -61.5 -150.5 -61.5c-65.333 0 -119 25 -161 75c-34 40.667 -51 86.334 -51 137.001c0 52 17 98 51 138c42 49.333 95.667 74 161 74c59.333 0 109.5 -20.5 150.5 -61.5s61.5 -91.167 61.5 -150.5z" />
    <glyph glyph-name="perthousand" unicode="&#x2030;" horiz-adv-x="2712" 
d="M2643 318c0 -86 -31 -162.334 -93 -229.001c-65.333 -70 -159.333 -105 -282 -105s-217.667 35.333 -285 106c-58 60.667 -87 137.334 -87 230.001c0 107.333 37.667 191 113 251c69.333 54.667 159 82 269 82c104.667 0 190.667 -29.333 258 -88
c71.333 -62 107 -144.333 107 -247zM1765 317.999c0 -86 -31 -162.334 -93 -229.001c-65.333 -70 -159.333 -105 -282 -105s-217.667 35.333 -285 106c-58 60.667 -87 137.334 -87 230.001c0 107.333 37.667 191 113 251c69.333 54.667 159 82 269 82
c104.667 0 190.667 -29.333 258 -88c71.333 -62 107 -144.333 107 -247zM1401 1365l-793 -1365h-177l792 1365h178zM815 1045c0 -86.667 -31 -163.333 -93 -230c-64.667 -69.333 -158.667 -104 -282 -104c-122.667 0 -217.667 35 -285 105c-58 60 -87 137 -87 231
c0 107.333 37.667 191 113 251c69.333 54.667 159 82 269 82c104.667 0 190.667 -29.333 258 -88c71.333 -62 107 -144.333 107 -247zM2425 318.999c0 43.333 -15.167 80.333 -45.5 111s-67.166 46 -110.5 46c-43.333 0 -80 -15.333 -110 -46s-45 -67.667 -45 -111
s15 -80.5 45 -111.5s66.667 -46.5 110 -46.5c44 0 81 15.333 111 46s45 68 45 112zM1547 318.999c0 43.333 -15 80.333 -45 111s-66.667 46 -110 46s-80.166 -15.333 -110.499 -46s-45.5 -67.667 -45.5 -111c0 -44 15.167 -81.333 45.5 -112s67.166 -46 110.499 -46
s80 15.333 110 46s45 68 45 112zM597 1045c0 44 -14.999 81.333 -44.999 112s-66.667 46 -110 46c-44 0 -81 -15.333 -111 -46s-45 -68 -45 -112c0 -43.333 15.167 -80.333 45.5 -111s67.166 -46 110.499 -46s80 15.333 110 46s45 67.667 45 111z" />
    <glyph glyph-name="guilsinglleft" unicode="&#x2039;" horiz-adv-x="637" 
d="M555 152l-187 -131l-311 446l311 444l181 -124l-228 -320z" />
    <glyph glyph-name="guilsinglright" unicode="&#x203a;" horiz-adv-x="637" 
d="M580 467l-311 -446l-187 131l233 315l-228 320l182 124z" />
    <glyph glyph-name="newsheqel" unicode="&#x20aa;" horiz-adv-x="1491" 
d="M1389 195c0 -74 -14.5 -125 -43.5 -153s-78.833 -42 -149.5 -42h-719v610h137v-473h547c60 0 90 25.333 90 76v739h138v-757zM1014 338h-137v401c0 50.667 -30.333 76 -91 76h-546v-815h-138v952h719c70.667 0 120.5 -14 149.5 -42s43.5 -78.667 43.5 -152v-420z" />
    <glyph glyph-name="trademark" unicode="&#x2122;" horiz-adv-x="1590" 
d="M1551 587h-212l-53 422l-175 -422h-92l-167 422l-61 -422h-211l130 778h209l149 -399l157 399h211zM540 1191h-169v-604h-208v604h-162v174h539v-174z" />
    <glyph glyph-name="alternativeayin" unicode="&#xfb20;" horiz-adv-x="965" 
d="M891 236c0 -60.667 -21.333 -115.167 -64 -163.5s-91.667 -72.5 -147 -72.5h-629v201h144v532h-115v201h289c28.667 0 43 -19 43 -57v-676h213c32.667 0 49 17.667 49 53v479h-121v201h285c35.333 0 53 -20.667 53 -62v-636z" />
    <glyph glyph-name="shinwithshindot" unicode="&#xfb2a;" horiz-adv-x="1360" 
d="M1251 180c-14.667 -57.333 -43.667 -102.333 -87 -135c-39.333 -30 -83.333 -45 -132 -45h-919v582l45 151h-97v201h287c23.333 -13.333 35 -41.333 35 -84c-1.33301 -57.333 -1.33301 -96.333 0 -117h-53v-532h248v532h-107v201h289c23.333 -13.333 35 -41.333 35 -84
v-649h186c35.333 0 53 19 53 57v475h-119v201h302c22.667 -13.333 34 -41.333 34 -84v-670zM1145 1137c0 -49.333 -23.998 -74 -71.998 -74s-72 24.667 -72 74c0 19.333 7.16699 36 21.5 50s31.166 21 50.499 21s36.166 -7 50.499 -21s21.5 -30.667 21.5 -50z" />
    <glyph glyph-name="shinwithsindot" unicode="&#xfb2b;" horiz-adv-x="1360" 
d="M1251 180c-14.667 -57.333 -43.667 -102.333 -87 -135c-39.333 -30 -83.333 -45 -132 -45h-919v582l45 151h-97v201h287c23.333 -13.333 35 -41.333 35 -84c-1.33301 -57.333 -1.33301 -96.333 0 -117h-53v-532h248v532h-107v201h289c23.333 -13.333 35 -41.333 35 -84
v-649h186c35.333 0 53 19 53 57v475h-119v201h302c22.667 -13.333 34 -41.333 34 -84v-670zM283 1137c0 -49.333 -23.998 -74 -71.998 -74s-72 24.667 -72 74c0 19.333 7.16699 36 21.5 50s31.166 21 50.499 21s36.166 -7 50.499 -21s21.5 -30.667 21.5 -50z" />
    <glyph glyph-name="shinwithdageshandshindot" unicode="&#xfb2c;" horiz-adv-x="1360" 
d="M1251 180c-14.667 -57.333 -43.667 -102.333 -87 -135c-39.333 -30 -83.333 -45 -132 -45h-919v582l45 151h-97v201h287c23.333 -13.333 35 -41.333 35 -84c-1.33301 -57.333 -1.33301 -96.333 0 -117h-53v-532h248v532h-107v201h289c23.333 -13.333 35 -41.333 35 -84
v-649h186c35.333 0 53 19 53 57v475h-119v201h302c22.667 -13.333 34 -41.333 34 -84v-670zM1145 1137c0 -49.333 -23.998 -74 -71.998 -74s-72 24.667 -72 74c0 19.333 7.16699 36 21.5 50s31.166 21 50.499 21s36.166 -7 50.499 -21s21.5 -30.667 21.5 -50zM987.002 467
c0 -46.667 -22.333 -70 -67 -70c-45.333 0 -68 23.333 -68 70c0 18.667 6.66699 34.667 20 48s29.333 20 48 20c18 0 33.667 -6.66699 47 -20s20 -29.333 20 -48z" />
    <glyph glyph-name="shinwithdageshandsindot" unicode="&#xfb2d;" horiz-adv-x="1360" 
d="M1251 180c-14.667 -57.333 -43.667 -102.333 -87 -135c-39.333 -30 -83.333 -45 -132 -45h-919v582l45 151h-97v201h287c23.333 -13.333 35 -41.333 35 -84c-1.33301 -57.333 -1.33301 -96.333 0 -117h-53v-532h248v532h-107v201h289c23.333 -13.333 35 -41.333 35 -84
v-649h186c35.333 0 53 19 53 57v475h-119v201h302c22.667 -13.333 34 -41.333 34 -84v-670zM987 467c0 -46.667 -22.333 -70 -67 -70c-45.333 0 -68 23.333 -68 70c0 18.667 6.66699 34.667 20 48s29.333 20 48 20c18 0 33.667 -6.66699 47 -20s20 -29.333 20 -48zM283 1137
c0 -49.333 -23.998 -74 -71.998 -74s-72 24.667 -72 74c0 19.333 7.16699 36 21.5 50s31.166 21 50.499 21s36.166 -7 50.499 -21s21.5 -30.667 21.5 -50z" />
    <glyph glyph-name="alefwithpatah" unicode="&#xfb2e;" horiz-adv-x="1077" 
d="M987 0h-247.999l-348 532c-7.33301 0 -16 -6.33301 -26 -19s-15 -25.334 -15 -38.001l19 -90l80 -385h-334v131c0 46.667 7.33301 70 22 70h60l-47 202c-10 41.333 -15 71 -15 89c0 102.667 49.333 172 148 208l-150 234h205c24.667 0 40.667 -2.33301 48 -7
c5.33301 -3.33301 14.666 -14.666 27.999 -33.999l245 -369c66 22 99 70.667 99 146v63h-90v201h233c44 -18 66 -65.667 66 -143v-109c0 -101.333 -67.667 -211.333 -203 -330zM737.001 -248h-377v90h377v-90z" />
    <glyph glyph-name="alefwithqamats" unicode="&#xfb2f;" horiz-adv-x="1077" 
d="M987 0h-247.999l-348 532c-7.33301 0 -16 -6.33301 -26 -19s-15 -25.334 -15 -38.001l19 -90l80 -385h-334v131c0 46.667 7.33301 70 22 70h60l-47 202c-10 41.333 -15 71 -15 89c0 102.667 49.333 172 148 208l-150 234h205c24.667 0 40.667 -2.33301 48 -7
c5.33301 -3.33301 14.666 -14.666 27.999 -33.999l245 -369c66 22 99 70.667 99 146v63h-90v201h233c44 -18 66 -65.667 66 -143v-109c0 -101.333 -67.667 -211.333 -203 -330zM737.001 -248l-162 -0.000976562c8 -25.333 13.333 -60 16 -104c1.33301 -35.333 3 -71 5 -107
h-82l4 107c2.66699 42.667 8.66699 77.334 18 104.001h-176v90h377v-90z" />
    <glyph glyph-name="alefwithmapiq" unicode="&#xfb30;" horiz-adv-x="1077" 
d="M987 0h-247.999l-348 532c-7.33301 0 -16 -6.33301 -26 -19s-15 -25.334 -15 -38.001l19 -90l80 -385h-334v131c0 46.667 7.33301 70 22 70h60l-47 202c-10 41.333 -15 71 -15 89c0 102.667 49.333 172 148 208l-150 234h205c24.667 0 40.667 -2.33301 48 -7
c5.33301 -3.33301 14.666 -14.666 27.999 -33.999l245 -369c66 22 99 70.667 99 146v63h-90v201h233c44 -18 66 -65.667 66 -143v-109c0 -101.333 -67.667 -211.333 -203 -330zM622.001 91c0 -22 -7.33301 -40.5 -22 -55.5s-32.667 -22.5 -54 -22.5s-39.333 7.5 -54 22.5
s-22 33.5 -22 55.5c0 20.667 7.5 38.5 22.5 53.5s32.833 22.5 53.5 22.5c20 0 37.667 -7.5 53 -22.5s23 -32.833 23 -53.5z" />
    <glyph glyph-name="betwithdagesh" unicode="&#xfb31;" horiz-adv-x="907" 
d="M823 0h-754.999v201h456v532h-463v201h578c29.333 0 53.666 -11.167 72.999 -33.5s29 -48.833 29 -79.5v-620h82v-201zM362.001 463c0 -49.333 -23.666 -74 -70.999 -74c-48 0 -72 24.667 -72 74c0 19.333 7.16699 36.166 21.5 50.499s31.166 21.5 50.499 21.5
s36 -7.16699 50 -21.5s21 -31.166 21 -50.499z" />
    <glyph glyph-name="gimelwithdagesh" unicode="&#xfb32;" horiz-adv-x="682" 
d="M596 0h-156l-69 180l-80 -180h-234l76 201h238l-45 532h-121v201h268c26.667 0 41 -11 43 -33zM291 463c0 -49.333 -23.998 -74 -71.998 -74s-72 24.667 -72 74c0 19.333 7.16699 36.166 21.5 50.499s31.166 21.5 50.499 21.5s36.166 -7.16699 50.499 -21.5
s21.5 -31.166 21.5 -50.499z" />
    <glyph glyph-name="daletwithdagesh" unicode="&#xfb33;" 
d="M784 780c0 -31.333 -9.33301 -47 -28 -47h-47v-733h-217v733h-449v201h702c26 0 39 -15 39 -45v-109zM332 463c0 -49.333 -23.998 -74 -71.998 -74s-72 24.667 -72 74c0 19.333 7.16699 36.166 21.5 50.499s31.166 21.5 50.499 21.5s36.166 -7.16699 50.499 -21.5
s21.5 -31.166 21.5 -50.499z" />
    <glyph glyph-name="hewithmapiq" unicode="&#xfb34;" horiz-adv-x="1020" 
d="M920 0l-218 -0.000976562v733h-587v201h708c42.667 0 70.667 -19.667 84 -59c8.66699 -25.333 13 -72.666 13 -141.999v-733zM332 -0.000976562h-217v524h217v-524zM584 462.999c0 -49.333 -23.998 -74 -71.998 -74s-72 24.667 -72 74
c0 19.333 7.16699 36.166 21.5 50.499s31.166 21.5 50.499 21.5s36.166 -7.16699 50.499 -21.5s21.5 -31.166 21.5 -50.499z" />
    <glyph glyph-name="vavwithdagesh" unicode="&#xfb35;" horiz-adv-x="510" 
d="M418 0h-217v733h-129v201h288c18 0 32.667 -10.333 44 -31c9.33301 -17.333 14 -35 14 -53v-850zM143 463c0 -49.333 -23.667 -74 -71 -74c-48 0 -72 24.667 -72 74c0 19.333 7 36.166 21 50.499s31 21.5 51 21.5c19.333 0 36 -7.16699 50 -21.5s21 -31.166 21 -50.499z
" />
    <glyph glyph-name="zayinwithdagesh" unicode="&#xfb36;" horiz-adv-x="567" 
d="M520 733h-43l-51 -158v-575h-217v528l63 205h-135v201h295c58.667 0 88 -24.667 88 -74v-127zM154 463c0 -49.333 -23.998 -74 -71.998 -74s-72 24.667 -72 74c0 19.333 7.16699 36.166 21.5 50.499s31.166 21.5 50.499 21.5s36.166 -7.16699 50.499 -21.5
s21.5 -31.166 21.5 -50.499z" />
    <glyph glyph-name="tetwithdagesh" unicode="&#xfb38;" horiz-adv-x="1020" 
d="M924 0h-820.001v565l62 168h-76v201h299c27.333 0 41 -17 41 -51v-150h-51l-57 -186v-346h385v471c-17.333 30.667 -47.666 49.667 -90.999 57l-63 -182h-113l119 397c94 0 173.667 -21.667 239 -65c72 -48 114 -115 126 -201v-678zM583.999 422
c0 -49.333 -23.998 -74 -71.998 -74s-72 24.667 -72 74c0 19.333 7.16699 36.166 21.5 50.499s31.166 21.5 50.499 21.5s36.166 -7.16699 50.499 -21.5s21.5 -31.166 21.5 -50.499z" />
    <glyph glyph-name="yodwithdagesh" unicode="&#xfb39;" horiz-adv-x="510" 
d="M418 494h-221v239h-136v201h301c37.333 0 56 -22.667 56 -68v-372zM154 463c0 -49.333 -23.998 -74 -71.998 -74s-72 24.667 -72 74c0 19.333 7.16699 36.166 21.5 50.499s31.166 21.5 50.499 21.5s36.166 -7.16699 50.499 -21.5s21.5 -31.166 21.5 -50.499z" />
    <glyph glyph-name="finalkafwithdagesh" unicode="&#xfb3a;" 
d="M760 -289l-217 -0.000976562v1022h-486v201h607c42 0 69.667 -19.667 83 -59c8.66699 -25.333 13 -72.666 13 -141.999v-1022zM362 462.999c0 -49.333 -23.666 -74 -70.999 -74c-48 0 -72 24.667 -72 74c0 19.333 7.16699 36.166 21.5 50.499s31.166 21.5 50.499 21.5
s36 -7.16699 50 -21.5s21 -31.166 21 -50.499z" />
    <glyph glyph-name="kafwithdagesh" unicode="&#xfb3b;" 
d="M760 201c-6.66699 -59.333 -31 -108.667 -73 -148c-37.333 -35.333 -75.333 -53 -114 -53h-493v201h373c45.333 0 75.333 23.667 90 71v461h-475v201h632c40 0 60 -20.667 60 -62v-671zM362 462.999c0 -49.333 -23.666 -74 -70.999 -74c-48 0 -72 24.667 -72 74
c0 19.333 7.16699 36.166 21.5 50.499s31.166 21.5 50.499 21.5s36 -7.16699 50 -21.5s21 -31.166 21 -50.499z" />
    <glyph glyph-name="lamedwithdagesh" unicode="&#xfb3c;" 
d="M762 324c0 -82 -29 -152.667 -87 -212c-74 -74.667 -181.667 -112 -323 -112h-80v201h80c128.667 0 193 47 193 141v391h-492v395h209v-194h436c42.667 0 64 -25.333 64 -76v-534zM375 463c0 -49.333 -23.998 -74 -71.998 -74s-72 24.667 -72 74
c0 19.333 7.16699 36.166 21.5 50.499s31.166 21.5 50.499 21.5s36.166 -7.16699 50.499 -21.5s21.5 -31.166 21.5 -50.499z" />
    <glyph glyph-name="memwithdagesh" unicode="&#xfb3e;" horiz-adv-x="1077" 
d="M981 0h-483.001v201h266v424c-20.667 86 -87 129 -199 129c-49.333 0 -92.666 -14 -129.999 -42c-44 -32 -66 -74.667 -66 -128v-584h-217v584c0 30 19.667 79.667 59 149h-131v201h211c28 -18 48.333 -42.667 61 -74c55.333 61.333 138 92 248 92
c104.667 0 191.5 -30.5 260.5 -91.5s109.167 -143.833 120.5 -248.5v-612zM632.999 463c0 -49.333 -23.998 -74 -71.998 -74s-72 24.667 -72 74c0 19.333 7.16699 36.166 21.5 50.499s31.166 21.5 50.499 21.5s36.166 -7.16699 50.499 -21.5s21.5 -31.166 21.5 -50.499z" />
    <glyph glyph-name="nunwithdagesh" unicode="&#xfb40;" horiz-adv-x="567" 
d="M469 0h-383v201h166v532h-137v201h305c32.667 0 49 -22 49 -66v-868zM184 463c0 -49.333 -23.667 -74 -71 -74c-48 0 -72 24.667 -72 74c0 19.333 7 36.166 21 50.499s31 21.5 51 21.5c19.333 0 36 -7.16699 50 -21.5s21 -31.166 21 -50.499z" />
    <glyph glyph-name="samekhwithdagesh" unicode="&#xfb41;" horiz-adv-x="1020" 
d="M928 274c-30.667 -97.333 -85.667 -171.333 -165 -222c-72.667 -46.667 -159.667 -70 -261 -70c-116.667 0 -212.5 35.333 -287.5 106s-112.5 162 -112.5 274v205l60 166h-76v201h756c57.333 0 86 -29.333 86 -88v-572zM711 332v401h-396v-405
c28.667 -96 95.667 -144 201 -144c54.667 0 100 15.667 136 47c31.333 27.333 51 61 59 101zM584 463c0 -49.333 -23.998 -74 -71.998 -74s-72 24.667 -72 74c0 19.333 7.16699 36.166 21.5 50.499s31.166 21.5 50.499 21.5s36.166 -7.16699 50.499 -21.5
s21.5 -31.166 21.5 -50.499z" />
    <glyph glyph-name="finalpewithdagesh" unicode="&#xfb43;" horiz-adv-x="1020" 
d="M938 -289l-217 0.000976562v1022h-383l-14 -153h122v-195h-317c-1.33301 39.333 -1.33301 102.666 0 189.999c0 37.333 17 90 51 158h-80v201h779c39.333 0 59 -17.667 59 -53v-1170zM647 483.001c0 -48.667 -24 -73 -72 -73c-47.333 0 -71 24.333 -71 73
c0 20 7 37 21 51s30.667 21 50 21c20 0 37 -7 51 -21s21 -31 21 -51z" />
    <glyph glyph-name="pewithdagesh" unicode="&#xfb44;" horiz-adv-x="1020" 
d="M924 188c0 -54.667 -22.168 -99.667 -66.501 -135s-104.166 -53 -179.499 -53h-567v201h518c52 0 78 25 78 75v457h-383v-153h125v-195h-320v190l61 158h-81v201h747c45.333 0 68 -19 68 -57v-689zM646.999 483c0 -48.667 -24 -73 -72 -73c-47.333 0 -71 24.333 -71 73
c0 20 7 37 21 51s30.667 21 50 21c20 0 37 -7 51 -21s21 -31 21 -51z" />
    <glyph glyph-name="tsadiwithdagesh" unicode="&#xfb46;" horiz-adv-x="1020" 
d="M922 0l-818 0.000976562v201h525l-432 395v137h-103v201h260c31.333 0 47 -19 47 -57v-201l187 -172c37.333 4.66699 68.333 25.667 93 63c22.667 33.333 34 69.666 34 108.999v57h-113v201h272c32 0 48 -19 48 -57v-220c0 -135.333 -61 -232 -183 -290l183 -166v-201z
M238 422.001c0 -49.333 -23.998 -74 -71.998 -74s-72 24.667 -72 74c0 19.333 7.16699 36.166 21.5 50.499s31.166 21.5 50.499 21.5s36.166 -7.16699 50.499 -21.5s21.5 -31.166 21.5 -50.499z" />
    <glyph glyph-name="qofwithdagesh" unicode="&#xfb47;" horiz-adv-x="1020" 
d="M918 332c0 -120.667 -42.001 -209.666 -126.001 -266.999c-64 -43.333 -144.333 -65 -241 -65h-51v201h43c53.333 0 94 15.333 122 46c23.333 25.333 35 55.666 35 90.999v395h-596v201h748c18.667 0 34.334 -7.66699 47.001 -23s19 -33 19 -53v-526zM335.999 -288.999
h-217v817h217v-817zM583.999 463.001c0 -49.333 -23.998 -74 -71.998 -74s-72 24.667 -72 74c0 19.333 7.16699 36.166 21.5 50.499s31.166 21.5 50.499 21.5s36.166 -7.16699 50.499 -21.5s21.5 -31.166 21.5 -50.499z" />
    <glyph glyph-name="reshwithdagesh" unicode="&#xfb48;" 
d="M760 0l-217 -0.000976562v733h-486v201h607c42 0 69.667 -19.667 83 -59c8.66699 -25.333 13 -72.666 13 -141.999v-733zM379 462.999c0 -49.333 -24 -74 -72 -74c-47.333 0 -71 24.667 -71 74c0 19.333 7 36.166 21 50.499s30.667 21.5 50 21.5
c20 0 37 -7.16699 51 -21.5s21 -31.166 21 -50.499z" />
    <glyph glyph-name="shinwithdagesh" unicode="&#xfb49;" horiz-adv-x="1360" 
d="M1251 180c-14.667 -57.333 -43.667 -102.333 -87 -135c-39.333 -30 -83.333 -45 -132 -45h-919v582l45 151h-97v201h287c23.333 -13.333 35 -41.333 35 -84c-1.33301 -57.333 -1.33301 -96.333 0 -117h-53v-532h248v532h-107v201h289c23.333 -13.333 35 -41.333 35 -84
v-649h186c35.333 0 53 19 53 57v475h-119v201h302c22.667 -13.333 34 -41.333 34 -84v-670zM987 467c0 -46.667 -22.333 -70 -67 -70c-45.333 0 -68 23.333 -68 70c0 18.667 6.66699 34.667 20 48s29.333 20 48 20c18 0 33.667 -6.66699 47 -20s20 -29.333 20 -48z" />
    <glyph glyph-name="tavwithdagesh" unicode="&#xfb4a;" horiz-adv-x="1077" 
d="M985 0h-217v733h-371v-733h-313v201h96v358l72 174h-86v201h721c65.333 0 98 -41.667 98 -125v-809zM653 463c0 -49.333 -23.667 -74 -71 -74c-48 0 -72 24.667 -72 74c0 19.333 7 36.166 21 50.499s31 21.5 51 21.5c19.333 0 36 -7.16699 50 -21.5
s21 -31.166 21 -50.499z" />
    <glyph glyph-name="vavwithholam" unicode="&#xfb4b;" horiz-adv-x="510" 
d="M418 0h-217v733h-129v201h288c18 0 32.667 -10.333 44 -31c9.33301 -17.333 14 -35 14 -53v-850zM315 1137c0 -49.333 -23.666 -74 -70.999 -74c-48 0 -72 24.667 -72 74c0 19.333 7.16699 36 21.5 50s31.166 21 50.499 21s36 -7 50 -21s21 -30.667 21 -50z" />
    <glyph glyph-name="betwithrafe" unicode="&#xfb4c;" horiz-adv-x="907" 
d="M823 0h-754.999v201h456v532h-463v201h578c29.333 0 53.666 -11.167 72.999 -33.5s29 -48.833 29 -79.5v-620h82v-201zM573.001 1062h-377v90h377v-90z" />
    <glyph glyph-name="kafwithrafe" unicode="&#xfb4d;" 
d="M760 201c-15.333 -134 -77.667 -201 -187 -201h-493v201h373c45.333 0 75.333 23.667 90 71v461h-475v201h632c40 0 60 -20.667 60 -62v-671zM572.999 1062h-377v90h377v-90z" />
    <glyph glyph-name="pewithrafe" unicode="&#xfb4e;" horiz-adv-x="1020" 
d="M924 188c0 -54.667 -22.168 -99.667 -66.501 -135s-104.166 -53 -179.499 -53h-567v201h518c52 0 78 25 78 75v457h-383v-153h125v-195h-320v190l61 158h-81v201h747c45.333 0 68 -19 68 -57v-689zM715.999 1062h-377v90h377v-90z" />
    <glyph glyph-name="aleflamed" unicode="&#xfb4f;" horiz-adv-x="1077" 
d="M987 0h-247.999l-348 532c-7.33301 0 -16 -6.33301 -26 -19s-15 -25.334 -15 -38.001l19 -90l80 -385h-334v131c0 46.667 7.33301 70 22 70h60l-47 202c-10 41.333 -15 71 -15 89c0 102.667 49.333 172 148 208l-21 33h-199v395h209v-194h66
c24.667 0 40.667 -2.33301 48 -7c5.33301 -3.33301 14.666 -14.666 27.999 -33.999l245 -369c66 22 99 70.667 99 146v63h-90v201h233c44 -18 66 -65.667 66 -143v-109c0 -101.333 -67.667 -211.333 -203 -330z" />
    <glyph glyph-name=".null" horiz-adv-x="0" 
 />
    <glyph glyph-name="nonmarkingreturn" horiz-adv-x="567" 
 />
    <glyph glyph-name="finalkafwithsheva" 
d="M760 -289l-217 -0.000976562v1022h-486v201h607c42 0 69.667 -19.667 83 -59c8.66699 -25.333 13 -72.666 13 -141.999v-1022zM362 462.999c0 -49.333 -23.666 -74 -70.999 -74c-48 0 -72 24.667 -72 74c0 19.333 7.16699 36.166 21.5 50.499s31.166 21.5 50.499 21.5
s36 -7.16699 50 -21.5s21 -31.166 21 -50.499zM362.001 253.999c0 -49.333 -23.666 -74 -70.999 -74c-48 0 -72 24.667 -72 74c0 19.333 7.16699 36.166 21.5 50.499s31.166 21.5 50.499 21.5s36 -7.16699 50 -21.5s21 -31.166 21 -50.499z" />
    <glyph glyph-name="finalkafwithqamats" 
d="M760 -289l-217 -0.000976562v1022h-486v201h607c42 0 69.667 -19.667 83 -59c8.66699 -25.333 13 -72.666 13 -141.999v-1022zM449 437.999h-121v-176h-92v176h-123v86h336v-86z" />
    <glyph glyph-name="lamedwithholam" 
d="M762 324c0 -82 -29 -152.667 -87 -212c-74 -74.667 -181.667 -112 -323 -112h-80v201h80c128.667 0 193 47 193 141v391h-492v395h209v-194h436c42.667 0 64 -25.333 64 -76v-534zM-18 1137c0 -49.333 -23.998 -74 -71.998 -74s-72 24.667 -72 74
c0 19.333 7.16699 36 21.5 50s31.166 21 50.499 21s36.166 -7 50.499 -21s21.5 -30.667 21.5 -50z" />
    <glyph glyph-name="lamedwithdageshandholam" 
d="M762 324c0 -82 -29 -152.667 -87 -212c-74 -74.667 -181.667 -112 -323 -112h-80v201h80c128.667 0 193 47 193 141v391h-492v395h209v-194h436c42.667 0 64 -25.333 64 -76v-534zM-18 1137c0 -49.333 -23.998 -74 -71.998 -74s-72 24.667 -72 74
c0 19.333 7.16699 36 21.5 50s31.166 21 50.499 21s36.166 -7 50.499 -21s21.5 -30.667 21.5 -50zM375.002 463c0 -49.333 -23.998 -74 -71.998 -74s-72 24.667 -72 74c0 19.333 7.16699 36.166 21.5 50.499s31.166 21.5 50.499 21.5s36.166 -7.16699 50.499 -21.5
s21.5 -31.166 21.5 -50.499z" />
  </font>
</defs>
</svg>
